<?xml version="1.0" standalone="no"?>
<!DOCTYPE svg PUBLIC "-//W3C//DTD SVG 1.1//EN" "http://www.w3.org/Graphics/SVG/1.1/DTD/svg11.dtd" >
<svg xmlns="http://www.w3.org/2000/svg">
<metadata></metadata>
<defs>
<font id="akzidenz-grotesk_bqregular" horiz-adv-x="1067" >
<font-face units-per-em="2048" ascent="1638" descent="-410" />
<missing-glyph horiz-adv-x="555" />
<glyph horiz-adv-x="0" />
<glyph horiz-adv-x="682" />
<glyph unicode=" "  horiz-adv-x="555" />
<glyph unicode="&#x09;" horiz-adv-x="555" />
<glyph unicode="&#xa0;" horiz-adv-x="555" />
<glyph unicode="!" horiz-adv-x="555" d="M236 0v184h161v-184h-161zM236 879v567h161v-590l-49 -555h-63z" />
<glyph unicode="&#x22;" horiz-adv-x="710" d="M90 1522h182l-57 -602h-65zM438 1522h180l-57 -602h-63z" />
<glyph unicode="#" horiz-adv-x="1366" d="M86 469v158h305l33 221h-291v158h311l64 438h164l-64 -438h226l65 438h160l-62 -438h283v-158h-303l-33 -221h285v-158h-307l-68 -469h-162l68 469h-228l-67 -469h-166l72 469h-285zM553 627h229l31 221h-227z" />
<glyph unicode="$" horiz-adv-x="1280" d="M41 418l209 22q12 -59 39 -109.5t60.5 -83t60.5 -52t51 -31.5q48 -23 127 -39v518q-1 0 -28 8.5t-55.5 18.5t-65.5 24.5t-75 34t-67 39.5q-166 120 -166 299q0 90 47 174q106 187 397 223q3 1 5 1t4 0.5t4 0.5v226h137l2 -226q24 -7 82 -20q115 -28 211 -103 q67 -52 106 -112q42 -61 66 -152l-191 -18q-21 66 -66.5 125t-103.5 90q-53 25 -106 33l2 -484q133 -39 229 -84q102 -50 157 -101q117 -109 116 -261q0 -103 -54.5 -190.5t-146.5 -143.5q-59 -35 -136 -58.5t-142 -23.5h-25v-244h-137v244q-197 27 -324 113 q-173 117 -223 342zM338 1090q0 -56 24 -97q16 -26 41.5 -47t63 -37.5t59 -24t62.5 -20.5v451q-62 -6 -109 -25q-64 -27 -102.5 -79.5t-38.5 -120.5zM725 604l2 -485q17 0 45 4q142 16 207 113q37 52 37 116q0 90 -68 146.5t-223 105.5z" />
<glyph unicode="%" horiz-adv-x="1835" d="M53 926q0 110 36 223t108 178q90 72 190 72q73 0 141 -39q47 -26 82.5 -65.5t55.5 -86t33 -87t17.5 -87t5.5 -66t1 -42.5v-4q0 -256 -127 -379q-40 -40 -95 -62t-112 -22q-62 0 -119.5 25.5t-97.5 70.5q-48 54 -83.5 148t-35.5 223zM188 934q0 -186 60 -279 q23 -36 61 -56.5t80 -20.5q91 0 146 79q55 80 55 265q0 176 -49 260q-30 55 -74.5 77.5t-81.5 22.5q-78 0 -131 -70q-66 -85 -66 -278zM508 -6l651 1403l111 -54l-649 -1402zM1071 446q0 121 28 215t75.5 149.5t105.5 83.5t123 28q64 0 122.5 -28.5t108 -85t78 -153 t27.5 -219.5q0 -27 -3 -59.5t-15 -100.5t-46 -131.5t-86 -103.5q-77 -59 -182 -59q-165 0 -256 137q-80 123 -80 327zM1202 451q0 -171 58 -263q30 -50 71.5 -70t77.5 -20q80 0 131 68q61 83 66 270q3 185 -58 281q-30 48 -71 66t-76 18q-44 -1 -81.5 -23.5t-59.5 -58.5 q-61 -92 -58 -268z" />
<glyph unicode="&#x26;" horiz-adv-x="1236" d="M78 379q0 155 104 280q41 48 80 76q25 19 77 48t77 48q-3 7 -14.5 37.5t-14.5 39l-12 34t-11.5 38.5t-7.5 35t-6.5 42t-1.5 41q0 143 90.5 240.5t233.5 97.5q125 0 211 -81.5t86 -207.5q0 -56 -23 -117q-43 -102 -174 -196q-12 -8 -117 -70q39 -86 125 -232 q77 -129 80 -133q59 111 96 267h158q-29 -199 -156 -404q15 -21 35 -41.5t66 -42.5t98 -22q17 0 57 6v-170q-44 -8 -77 -8q-60 0 -111 15t-89 42.5t-57 45t-42 44.5q-44 -37 -82 -61q-77 -50 -153 -69t-130 -19q-92 0 -172 38q-26 12 -52 28.5t-58 48t-56 69t-40.5 93.5 t-16.5 120zM252 399q0 -46 18 -92q30 -78 91.5 -122t144.5 -44q122 2 235 107q-24 34 -47.5 72.5t-52.5 88.5t-43 74q-90 152 -115 207q-55 -26 -94 -53q-76 -55 -106.5 -119t-30.5 -119zM512 1133q4 -96 68 -226q116 50 171.5 120t55.5 140q0 32 -12 64q-15 37 -49 58.5 t-76 21.5q-33 0 -70 -19q-29 -15 -48 -38t-27 -48t-10.5 -41.5t-2.5 -31.5z" />
<glyph unicode="'" horiz-adv-x="362" d="M90 1522h182l-57 -602h-65z" />
<glyph unicode="(" horiz-adv-x="645" d="M82 657q0 177 50 351t142 315q58 86 127 158q67 70 181 153l67 -82q-72 -66 -105 -101t-69 -85q-98 -133 -150.5 -313t-52.5 -381q0 -281 103 -527.5t278 -384.5l-65 -94q-11 9 -26 21.5t-19 15.5q-129 103 -232 242q-97 129 -151 278q-78 205 -78 434z" />
<glyph unicode=")" horiz-adv-x="653" d="M8 1546l68 94l45 -36q122 -97 229 -242q102 -139 154 -279q76 -200 76 -434q0 -219 -78 -434q-79 -217 -244 -389q-42 -44 -76 -73.5t-104 -80.5l-68 80q71 65 104.5 101t69.5 88q98 134 151.5 314.5t53.5 381.5q0 282 -102 526.5t-279 382.5z" />
<glyph unicode="*" horiz-adv-x="714" d="M37 1178l35 116l209 -55v211h127v-215l210 70l44 -111l-213 -76l129 -170l-99 -76l-135 175l-121 -175l-102 74l121 174z" />
<glyph unicode="+" horiz-adv-x="1482" d="M193 537v159h458v467h180v-467h461v-159h-461v-469h-180v469h-458z" />
<glyph unicode="," horiz-adv-x="468" d="M129 0v223h203v-123q0 -230 -84 -419h-96q67 191 67 319h-90z" />
<glyph unicode="-" horiz-adv-x="757" d="M92 537v155h574v-155h-574z" />
<glyph unicode="." horiz-adv-x="468" d="M131 0v231h203v-231h-203z" />
<glyph unicode="/" horiz-adv-x="681" d="M27 0l477 1438h153l-473 -1438h-157z" />
<glyph unicode="0" horiz-adv-x="1193" d="M100 680q0 24 0.5 42.5t4.5 68.5t11 92t23 101.5t38 108.5t58 102t80 93q118 105 279 105q119 0 225 -64q55 -34 102 -86.5t88 -129t64.5 -186.5t22.5 -239q0 -228 -64 -377t-162 -229q-116 -94 -274 -94q-124 0 -225 61q-54 34 -100 85.5t-85.5 127t-62.5 183t-23 235.5 zM283 688q0 -286 102 -428q80 -115 215 -113q79 0 135 37q51 34 88 96.5t55 137t25.5 140.5t7.5 130q0 292 -108 438q-79 105 -203 105q-110 0 -184 -74q-41 -37 -76 -113q-57 -132 -57 -356z" />
<glyph unicode="1" horiz-adv-x="1193" d="M242 1010v127q128 0 200 30t109 90q34 52 43 123h137v-1380h-192v1010h-297z" />
<glyph unicode="2" horiz-adv-x="1193" d="M158 961q0 208 129 325q122 107 317 107q176 0 297 -103q71 -59 109.5 -148.5t38.5 -185.5q0 -215 -187 -424q-65 -76 -155 -151q-77 -67 -162 -129q-8 -6 -142 -94h662v-158h-903l2 176q6 3 86 47q58 37 152 110.5t188 162.5q59 54 100.5 100t83 106t63 127.5 t21.5 139.5q0 122 -69 193t-191 71q-77 0 -128.5 -25t-78.5 -59q-18 -26 -37 -74q-16 -56 -16 -114q0 -66 24 -164h-180q-24 84 -24 164z" />
<glyph unicode="3" horiz-adv-x="1193" d="M82 457h184q0 -2 1 -15.5t2.5 -26.5t4.5 -30.5t7 -36t10 -35.5q60 -161 299 -161q19 0 34.5 0.5t48.5 5.5t59 13.5t57.5 27t52 44t35 66t14.5 90.5q0 85 -47 144q-69 88 -269 88q-61 0 -122 -6l2 166q223 -17 315 45q88 57 88 172q0 69 -37 122q-38 56 -102.5 83.5 t-138.5 27.5q-150 0 -222 -115q-18 -31 -28.5 -69.5t-13 -64.5t-5.5 -74l-182 8q7 115 27 182q20 64 54 114.5t76 80t82.5 49t85.5 28t72.5 11t55.5 2.5q108 0 204 -33q63 -22 111 -58.5t75 -74.5t43.5 -81.5t21.5 -75.5t5 -62q0 -23 -3 -50.5t-18.5 -77.5t-43.5 -83 q-28 -34 -103 -82q46 -20 84 -49q125 -104 125 -281q0 -158 -106 -264q-129 -133 -377 -133q-26 0 -50 1t-70.5 8t-86 19t-88.5 36.5t-86.5 58t-70.5 87t-50 119.5q-14 56 -16 140z" />
<glyph unicode="4" horiz-adv-x="1193" d="M86 332v166l659 882h144v-893h201v-155h-201v-332h-178v332h-625zM272 487h439l8 619z" />
<glyph unicode="5" horiz-adv-x="1193" d="M96 430l183 12q4 -46 28 -108q49 -126 158 -168q53 -21 117 -21q67 0 125 25q32 14 61 37t56.5 60t44 94.5t16.5 127.5q0 65 -15 115q-17 61 -60 110t-101 72q-66 21 -123 21q-94 0 -158 -43q-16 -8 -39 -31q-54 -52 -76 -104h-166l46 751h784v-161h-645l-19 -363 q135 113 305 111q102 0 189 -37q128 -57 198 -180t70 -267q0 -155 -79.5 -284t-219.5 -181q-82 -30 -188 -30q-88 0 -162.5 22t-123.5 55t-88 77t-59.5 81.5t-33.5 75.5q-18 57 -25 131z" />
<glyph unicode="6" horiz-adv-x="1193" d="M127 674q0 233 66 407q28 80 83 150q87 103 195 137q78 25 152 25q84 0 163 -29q112 -40 167.5 -119t88.5 -209l-178 -24q-29 162 -145 209q-43 16 -94 16q-18 0 -42.5 -3t-65.5 -17.5t-71 -38.5q-63 -54 -102 -166q-7 -21 -12.5 -39.5t-9.5 -40.5t-6.5 -33.5t-5 -38.5 t-3 -34t-2.5 -42t-2 -41l16 21q16 20 27 31q44 44 119.5 80t179.5 36q98 0 176 -34q31 -14 61 -33t67.5 -54.5t64.5 -78t46 -106.5t19 -138q0 -101 -32 -186q-51 -138 -164 -215.5t-262 -77.5q-39 0 -79 7t-95 26t-110.5 63t-98.5 109q-55 81 -83 192t-28 289zM332 451 q0 -60 20 -117q8 -21 20 -41.5t35.5 -47t52 -46t72 -33.5t93.5 -14q57 0 112 22q81 35 122.5 113t39.5 168q0 49 -16 102q-19 60 -63 107t-101 67q-45 14 -101 14q-65 0 -112 -20q-82 -33 -128 -108t-46 -166z" />
<glyph unicode="7" horiz-adv-x="1193" d="M197 954v426h845v-198q0 -19 -2 -35t-4 -26t-11 -29t-13.5 -27.5t-22 -39t-26.5 -46.5l-72 -125q-70 -125 -117 -223q-7 -15 -76 -166q-49 -111 -73 -186q-23 -72 -39 -148q-18 -76 -25 -131h-217q47 366 418 944l61 96q46 71 57 99t11 78h-547v-263h-147z" />
<glyph unicode="8" horiz-adv-x="1193" d="M106 412q0 72 27.5 144t77.5 122q20 20 84 63q-80 54 -117 122t-37 163q0 117 62 209q113 158 397 158q279 0 387 -152q66 -90 66 -215q0 -154 -103 -246q-25 -22 -53 -39q31 -19 48.5 -31t49.5 -42t50 -61t32.5 -81.5t14.5 -109.5q0 -116 -52 -207q-23 -42 -56.5 -77.5 t-85.5 -69.5t-129.5 -54t-170.5 -20q-29 0 -55.5 1.5t-81.5 12t-100.5 29.5t-98 58.5t-88.5 94.5q-68 105 -68 228zM293 414q0 -82 41 -142q81 -116 268 -116q154 0 234 84q29 30 45 69t18.5 63.5t1.5 45.5q0 110 -74 172q-77 69 -235 69q-84 0 -145.5 -23t-93 -61t-46 -78 t-14.5 -83zM324 1030q0 -61 28 -108q61 -109 246 -109q190 0 246 113q24 43 24 102q0 20 -4 42.5t-22.5 58t-50.5 57.5q-70 49 -201 49q-166 0 -232 -90q-34 -45 -34 -115z" />
<glyph unicode="9" horiz-adv-x="1193" d="M106 909q0 29 3.5 60.5t14.5 82.5t39 104t70 97q128 133 340 133q200 0 324 -118q178 -171 178 -566q0 -364 -155 -557q-54 -69 -121 -106q-92 -51 -236 -51q-75 0 -129 16q-56 17 -120.5 63.5t-112.5 131.5q-30 55 -51 133l178 33q3 -18 16.5 -56.5t34.5 -70.5 q66 -95 196 -95q111 0 189 74q67 65 101 181.5t34 224.5q-24 -30 -46 -52.5t-64.5 -55t-102 -51t-129.5 -18.5q-200 0 -325.5 130.5t-125.5 332.5zM289 899q0 -75 22 -125q11 -26 29.5 -51t49.5 -52.5t80 -44t108 -16.5q62 0 118 21q21 7 41.5 17.5t47 31.5t46 47.5t34 68 t16.5 89.5q0 67 -17 125q-33 104 -109.5 163.5t-183.5 59.5q-94 0 -163 -51q-41 -29 -67.5 -72.5t-36.5 -90t-12.5 -72t-2.5 -48.5z" />
<glyph unicode=":" horiz-adv-x="555" d="M217 0v231h203v-231h-203zM217 772v229h203v-229h-203z" />
<glyph unicode=";" horiz-adv-x="555" d="M219 0v227h203v-125q0 -209 -51 -350q-4 -12 -14.5 -35t-14.5 -34h-92q51 158 51 317h-82zM219 778v226h203v-226h-203z" />
<glyph unicode="&#x3c;" horiz-adv-x="1482" d="M233 526v183l953 481v-180l-787 -389l787 -388v-186z" />
<glyph unicode="=" horiz-adv-x="1482" d="M203 334v158h1077v-158h-1077zM203 717v160h1077v-160h-1077z" />
<glyph unicode="&#x3e;" horiz-adv-x="1482" d="M295 43v182l786 387l-786 387v187l952 -477v-185z" />
<glyph unicode="?" horiz-adv-x="1150" d="M145 965q0 211 101 331q21 26 49.5 50t73 51.5t106.5 44t131 16.5q181 0 318 -112q153 -127 153 -330q0 -75 -21.5 -138.5t-56.5 -105.5t-67 -67t-64 -41q-70 -34 -180 -46v-311h-162l2 484h56q128 0 200 38q46 23 76 64q47 62 47 145q0 76 -39 140q-31 47 -100.5 87 t-167.5 40q-139 0 -209 -88q-67 -79 -67 -220v-32h-179zM514 0v199h182v-199h-182z" />
<glyph unicode="@" horiz-adv-x="1835" d="M141 479q0 193 72.5 372.5t197 313t300.5 213.5t372 80q273 0 442 -159.5t169 -430.5q0 -153 -47 -299q-23 -70 -62 -141t-92.5 -136.5t-125 -107t-146.5 -41.5q-79 0 -125.5 48.5t-44.5 127.5q-134 -174 -295 -174q-89 0 -151 49.5t-89 122.5t-27 160q0 146 63 291 t175 223q95 68 195 68q83 0 144 -46.5t91 -125.5l31 127h139l-67 -307q-2 -9 -12.5 -55t-14 -62t-11.5 -56t-11 -63.5t-6 -56t-3 -60.5q0 -36 15 -62t49 -26q63 0 133 84q84 98 130 237t46 275q0 228 -136 357t-364 129q-136 0 -262.5 -46.5t-226 -129.5t-175 -191.5 t-115.5 -237.5t-40 -262q0 -193 89 -335.5t239.5 -214.5t341.5 -72q377 0 686 299l67 -84q-155 -155 -348 -241.5t-403 -86.5q-183 0 -357 72q-212 90 -321 260t-109 401zM651 487q0 -88 40.5 -149.5t123.5 -61.5q55 0 103 30t81.5 78.5t55.5 99t35 102.5q16 75 16 145 q0 81 -46.5 140t-125.5 59q-65 0 -129 -53q-73 -63 -113.5 -173.5t-40.5 -216.5z" />
<glyph unicode="A" horiz-adv-x="1323" d="M20 0l551 1446h201l526 -1446h-202l-158 442h-551l-162 -442h-205zM449 604h432l-211 604z" />
<glyph unicode="B" horiz-adv-x="1409" d="M158 0v1446h680q190 0 311 -105q119 -101 119 -266q0 -145 -99 -241q-40 -38 -77 -56q-18 -9 -45 -16q68 -20 114 -51q150 -101 150 -312q-1 -74 -21.5 -136t-50 -100.5t-69.5 -69t-71.5 -44.5t-64.5 -24q-56 -17 -107.5 -21t-171.5 -4h-32h-565zM340 170h428 q130 0 174 12q34 6 74 29q96 60 96 203q0 61 -18 104q-7 18 -19 36t-32 40.5t-52 40.5t-71 27q-12 3 -23.5 4.5t-21 3t-24 2.5t-23 1.5t-28 0.5h-29.5h-36.5h-40.5h-354v-504zM340 838h303q211 0 264 14q24 5 48 18t50.5 36t43 64.5t16.5 94.5q0 120 -90 174q-40 25 -82 31 t-141 6h-412v-438z" />
<glyph unicode="C" horiz-adv-x="1564" d="M100 723q0 225 86 396.5t252.5 267.5t392.5 96q37 0 71 -2t100 -14t122 -33t123 -64t117 -102q76 -90 127 -228l-195 -39q-30 83 -65 136q-23 32 -54 61.5t-79.5 61t-118.5 50.5t-150 19q-113 0 -211 -41q-62 -26 -112 -67.5t-81 -84t-54 -96.5t-33.5 -95t-16.5 -90.5 t-7 -72t-1 -49.5q0 -100 19 -187t49 -148t71 -109.5t82.5 -78t86.5 -48.5q98 -37 210 -37q82 0 148 18q27 7 56.5 21t69.5 39t79 67t67 95q39 72 60 184l209 -25q-10 -51 -35 -114q-14 -35 -33.5 -72t-58 -90t-85.5 -97.5t-118 -87.5t-152 -67q-109 -33 -231 -33 q-291 0 -479 174q-41 39 -77 87.5t-72.5 119.5t-57.5 169t-21 210z" />
<glyph unicode="D" horiz-adv-x="1449" d="M160 0v1446h573q228 0 389 -135q226 -191 226 -590q0 -140 -25 -248q-10 -40 -23 -78t-46 -98t-75 -107t-113.5 -93t-158.5 -70q-88 -25 -241 -25q-24 0 -71 -1t-69 -1h-366zM358 168h342q210 0 326 135q125 140 125 420q0 263 -113 403q-41 48 -71 68q-59 44 -123 59 q-49 14 -100.5 18.5t-157.5 4.5h-228v-1108z" />
<glyph unicode="E" horiz-adv-x="1236" d="M162 0v1446h995v-170h-811v-447h705v-167h-705v-494h836v-168h-1020z" />
<glyph unicode="F" horiz-adv-x="1110" d="M160 0v1446h927v-172h-735v-426h684v-168h-684v-680h-192z" />
<glyph unicode="G" horiz-adv-x="1662" d="M102 705q0 326 197 548q210 230 549 230q145 0 266 -43q213 -72 344 -269q34 -52 60 -108l-201 -51q-33 98 -92 162q-44 50 -101 83t-114 45.5t-90.5 16.5t-65.5 4q-248 0 -391 -166q-148 -170 -148 -430q0 -231 113 -391q148 -205 422 -205q181 0 319 94 q181 125 181 359v18h-504v162h672v-764h-168v203q-2 -2 -12 -17t-20.5 -28t-25.5 -27q-68 -68 -186 -118t-285 -50q-180 0 -329 70q-50 24 -97 57t-102.5 91.5t-96 129t-67.5 173.5t-27 221z" />
<glyph unicode="H" horiz-adv-x="1492" d="M162 0v1446h190v-615h787v615h194v-1446h-194v662h-787v-662h-190z" />
<glyph unicode="I" horiz-adv-x="468" d="M137 0v1446h195v-1446h-195z" />
<glyph unicode="J" horiz-adv-x="768" d="M18 -16v211l25 -13q55 -28 145 -28q43 0 64 4q88 14 127 71q23 34 28 81.5t5 156.5v979h196v-1063q0 -74 -2.5 -111t-20.5 -88.5t-55 -93.5q-109 -127 -315 -127q-85 0 -197 21z" />
<glyph unicode="K" horiz-adv-x="1280" d="M137 0v1446h193v-707l686 707h237l-585 -598l610 -848h-236l-507 713l-205 -209v-504h-193z" />
<glyph unicode="L" d="M139 0v1446h193v-1274h700v-172h-893z" />
<glyph unicode="M" horiz-adv-x="1662" d="M139 0v1446h250l442 -1186l447 1186h250v-1446h-193l27 1212l-457 -1212h-149l-449 1194l21 -1194h-189z" />
<glyph unicode="N" horiz-adv-x="1449" d="M160 0v1446h182l782 -1159l-8 1159h174v-1446h-174l-792 1176l18 -1176h-182z" />
<glyph unicode="O" horiz-adv-x="1662" d="M104 725q0 325 181 530q99 112 245.5 170t303.5 58q155 0 286 -51q218 -85 329.5 -271t111.5 -426q0 -297 -152 -504q-35 -47 -80.5 -88t-115.5 -84.5t-170 -69.5t-216 -26q-300 0 -497 184q-226 212 -226 578zM313 723q0 -226 97 -383q45 -68 92 -109q66 -57 139 -84 q89 -32 197 -32q123 0 219 43q56 26 105.5 69.5t94 111.5t70.5 170q25 98 25 217v9q0 248 -113 402q-139 190 -405 190q-84 -1 -154.5 -20t-119.5 -51t-80.5 -62.5t-55.5 -65.5q-57 -81 -84 -189t-27 -216z" />
<glyph unicode="P" horiz-adv-x="1280" d="M156 0v1446h624q72 0 111 -2.5t94 -16.5t100 -43q56 -36 94.5 -87.5t53 -105.5t19.5 -88t5 -65q0 -145 -72.5 -257.5t-207.5 -149.5q-69 -19 -217 -19h-418v-612h-186zM342 784h403q109 0 156 11q83 22 124.5 89t41.5 158q0 56 -14 97q-18 50 -57 83.5t-91 47.5 q-43 10 -117 10h-446v-496z" />
<glyph unicode="Q" horiz-adv-x="1662" d="M96 723q0 43 3 86t20 120.5t46 144.5t87 143.5t137 132.5q187 133 447 133q282 0 471 -154q46 -38 86.5 -87.5t80.5 -123.5t63.5 -177.5t23.5 -223.5q0 -133 -31 -236.5t-103 -218.5l224 -192l-123 -144l-230 195q-113 -84 -223 -121t-250 -37q-279 0 -471 158 q-45 37 -85 85.5t-82 121.5t-66.5 175t-24.5 220zM307 729q0 -334 201 -500q130 -110 328 -110q240 0 383 170q135 164 135 434q0 241 -111 401q-144 209 -414 209q-220 0 -364 -151q-158 -168 -158 -453z" />
<glyph unicode="R" horiz-adv-x="1366" d="M160 0v1446h538q15 0 43.5 0.5t51.5 0.5t43 -1q139 -6 221.5 -44t134.5 -102q88 -106 88 -276q0 -25 -2 -50.5t-13 -70.5t-30 -83t-57.5 -78.5t-90.5 -67.5q-62 -32 -147 -47l406 -627h-230l-395 614h-373v-614h-188zM348 776h385q47 0 68.5 0.5t65 5.5t69 14.5t56.5 29 t52 48.5q46 63 46 150q0 151 -115 221q-12 7 -25 13t-28.5 10t-25.5 7.5t-30 5.5t-27 3t-30.5 1.5t-27 0.5h-30.5h-28h-375v-510z" />
<glyph unicode="S" horiz-adv-x="1366" d="M76 463l207 26q8 -166 98 -260q110 -114 317 -114q76 0 133 16q25 6 48 15t58 30.5t60 49t43.5 74.5t18.5 103q0 64 -20.5 100.5t-53.5 63.5q-59 47 -201 76l-125 27q-79 18 -112.5 26t-97 28.5t-107.5 45.5q-197 106 -197 311q0 167 138 283q42 35 92.5 59.5t88.5 35.5 t88 17t67.5 6.5t50.5 0.5q244 0 387 -109q78 -59 117 -129q46 -78 67 -207l-194 -12q-3 42 -15 86q-12 42 -35.5 78t-64 70t-107 53.5t-151.5 19.5q-83 0 -160.5 -22t-120.5 -74q-49 -55 -49 -131q0 -61 35 -107q24 -33 69 -57.5t77 -34t89 -22.5q11 -3 17 -4l160 -39 q23 -5 112 -29q220 -49 309 -197q54 -94 54 -200q0 -178 -121 -297q-160 -156 -457 -156q-240 0 -395 100q-67 43 -117 109q-84 113 -100 291z" />
<glyph unicode="T" horiz-adv-x="1110" d="M23 1278v168h1058v-168h-432v-1278h-192v1278h-434z" />
<glyph unicode="U" horiz-adv-x="1409" d="M156 551v895h192v-868q0 -127 6 -168q15 -123 95 -199q52 -49 120 -70q51 -14 125 -14q127 0 215 57q35 22 60.5 50t41.5 62t25.5 64.5t14 73t5.5 72.5t1 76v864h194v-924q0 -110 -12 -168q-13 -72 -61.5 -155t-149.5 -148q-140 -88 -336 -88q-135 0 -235 39 q-99 37 -174 114.5t-107 178.5q-14 49 -17 95.5t-3 160.5z" />
<glyph unicode="V" horiz-adv-x="1236" d="M23 1446h204l383 -1208l398 1208h204l-510 -1446h-190z" />
<glyph unicode="W" horiz-adv-x="2091" d="M37 1446h203l342 -1198l366 1198h189l381 -1198l337 1198h199l-442 -1446h-189l-381 1198l-368 -1198h-193z" />
<glyph unicode="X" horiz-adv-x="1280" d="M43 0l481 758l-454 688h229l338 -520l324 520h227l-443 -688l494 -758h-227l-375 588l-371 -588h-223z" />
<glyph unicode="Y" horiz-adv-x="1280" d="M29 1446h227l381 -612l385 612h229l-520 -784v-662h-194v662z" />
<glyph unicode="Z" horiz-adv-x="1236" d="M37 0v188l893 1082h-821v176h1040v-180l-889 -1092h909v-174h-1132z" />
<glyph unicode="[" horiz-adv-x="567" d="M139 -295v1890h377v-120h-213v-1649h213v-121h-377z" />
<glyph unicode="\" horiz-adv-x="681" d="M27 1438h157l473 -1438h-153z" />
<glyph unicode="]" horiz-adv-x="565" d="M47 -172h213v1649h-213v118h377v-1888h-377v121z" />
<glyph unicode="^" horiz-adv-x="1482" d="M231 588l418 858h187l415 -858h-186l-320 694l-321 -694h-193z" />
<glyph unicode="_" horiz-adv-x="1024" d="M-20 -285h1064v-153h-1064v153z" />
<glyph unicode="`" horiz-adv-x="555" d="M143 1362h183l86 -295h-99z" />
<glyph unicode="a" horiz-adv-x="1024" d="M66 250q0 128 104 209q120 90 391 108l148 11q0 52 -2 79q-2 29 -4.5 50t-15.5 54.5t-34 54.5t-62 37.5t-97 16.5q-160 0 -199 -116q-10 -31 -10 -86l-170 10q0 39 16 94q10 31 26 59t45 59t66.5 53.5t93.5 37t123 14.5q74 0 152 -20q22 -6 45 -15t58 -28.5t65.5 -55 t46.5 -81.5q13 -36 16.5 -78.5t3.5 -128.5v-316q0 -43 2 -63q1 -15 3 -22.5t8 -22t21.5 -22t39.5 -7.5q13 0 49 8v-137q-55 -18 -104 -18q-67 0 -103 24q-15 11 -32 37q-23 31 -33 82q-21 -22 -34.5 -36t-47 -40t-65.5 -41.5t-81 -28t-102 -12.5q-67 0 -133 21 q-89 30 -141.5 97t-52.5 159zM246 254q0 -60 45.5 -101.5t136.5 -41.5q32 0 64 5.5t73 23.5t72 47.5t52.5 83t21.5 124.5q0 9 -1 29t-1 29v18q-7 -1 -55.5 -8.5t-79 -12.5t-75.5 -13.5t-78.5 -17.5t-55.5 -18q-16 -6 -32 -15.5t-38 -26.5t-35.5 -44.5t-13.5 -60.5z" />
<glyph unicode="b" horiz-adv-x="1150" d="M133 0v1446h164v-615q25 38 45 56q108 108 287 108q199 0 325 -145q119 -143 119 -367q0 -217 -104 -354q-64 -86 -152 -123q-87 -37 -190 -37q-121 0 -221 58q-68 41 -109 98v-125h-164zM293 479q0 -133 45 -213q13 -25 31 -48t48.5 -49.5t78 -43t104.5 -16.5 q94 0 156 43q60 40 101.5 124t41.5 213q0 127 -45 207q-89 150 -254 150q-130 0 -213 -88q-92 -95 -94 -279z" />
<glyph unicode="c" d="M80 475q1 89 20 165.5t48.5 128.5t69 94t77.5 65.5t78 38.5q75 28 176 28q91 0 166 -22.5t123.5 -60t79 -75t49.5 -79.5q17 -38 26 -86l-180 -17q-20 81 -41 113q-71 109 -221 109q-58 0 -108 -21t-92 -64.5t-66.5 -122t-24.5 -184.5q0 -212 111 -319q75 -70 192 -70 q69 0 123 25q72 32 104 92.5t46 151.5l176 -17q-31 -188 -162 -293q-111 -86 -291 -86q-104 0 -182 29q-39 14 -76 36t-78.5 61.5t-72 90t-50.5 126t-20 163.5z" />
<glyph unicode="d" horiz-adv-x="1150" d="M80 485q0 209 98 338q20 28 46 53t68 54.5t101.5 47t128.5 17.5q156 0 275 -96q31 -25 57 -61v608h164v-1446h-164v123q-25 -29 -47.5 -49.5t-63 -47.5t-96.5 -42t-123 -15q-205 0 -325 146q-119 143 -119 370zM256 479q0 -163 74 -260q81 -104 227 -104q92 0 156 41 q63 40 105 120q41 79 40 201v6q0 74 -12 125q-25 106 -101.5 171.5t-183.5 66.5q-139 0 -223 -101q-82 -97 -82 -266z" />
<glyph unicode="e" d="M80 492q0 207 108 337q66 79 160.5 122.5t198.5 43.5q78 0 151 -26q38 -13 75.5 -34t88 -73.5t80.5 -122.5q47 -110 46 -286h-732v-5q0 -112 41 -190q42 -78 98 -117q73 -49 174 -49q98 0 162 60q31 25 53 63q9 15 16.5 32.5t11 29.5t7 25t4.5 15l165 -22q0 -1 -7 -20.5 t-13 -34t-17.5 -37.5t-24.5 -43q-126 -191 -373 -191q-113 0 -203 39q-50 21 -93.5 56t-85.5 91t-66.5 143t-24.5 194zM260 571h551q-5 60 -14 95q-25 90 -96.5 146t-165.5 56q-83 0 -144.5 -43t-92.5 -108t-38 -146z" />
<glyph unicode="f" horiz-adv-x="555" d="M23 829v136h159v84q0 114 4 163t21 91q52 133 229 133q48 0 119 -13l-2 -129q-33 11 -88 11q-75 0 -105 -56q-12 -21 -15 -43.5t-3 -72.5v-168h182v-136h-182v-829h-160v829h-159z" />
<glyph unicode="g" horiz-adv-x="1150" d="M84 477q0 216 100 350q65 84 147 126t201 42q64 0 132 -24q98 -36 184 -137v131h170v-914q0 -102 -4 -150.5t-19 -99.5q-57 -192 -258 -247q-95 -23 -168 -23q-76 0 -161 23q-66 18 -117 51.5t-78.5 67.5t-47 79.5t-25.5 73.5t-11 63h184q0 -80 41 -133q69 -92 226 -92 q165 0 227 98q27 42 35 100q6 46 6 125v42l-2 110q-124 -170 -316 -170q-111 0 -202 47q-44 23 -83 58t-77.5 89t-61 135.5t-22.5 178.5zM252 481q0 -212 121 -307q74 -57 184 -57q112 0 184 63q113 102 113 316q0 81 -20 147q-32 97 -110 152q-75 53 -172 53h-7 q-65 0 -125 -29q-70 -35 -119 -118.5t-49 -219.5z" />
<glyph unicode="h" d="M135 0v1446h164l2 -578q118 127 291 127q155 0 246 -82q25 -25 41 -49q28 -41 41.5 -94t15.5 -89t2 -104v-18v-559h-166v510q0 6 0.5 40t0 48t-2 41t-5.5 47.5t-11 38.5q-23 63 -75 95t-120 32q-20 0 -43 -4t-55 -15t-63.5 -37.5t-53.5 -64.5q-22 -39 -32.5 -90 t-11.5 -80t-1 -92v-469h-164z" />
<glyph unicode="i" horiz-adv-x="425" d="M141 0v965h158v-965h-158zM141 1257v189h158v-189h-158z" />
<glyph unicode="j" horiz-adv-x="425" d="M-47 -315q68 -7 74 -7q43 0 73 21q23 16 28 42t5 91v1133h160v-1178q0 -48 -1.5 -73t-13.5 -60.5t-36 -61.5q-10 -11 -21.5 -20t-24 -15t-23.5 -11t-24 -7.5t-22 -4.5t-22 -2.5t-18 -0.5h-16h-12q-36 0 -106 8v146zM133 1255v191h160v-191h-160z" />
<glyph unicode="k" horiz-adv-x="937" d="M133 0v1446h166v-891l385 410h201l-359 -381l441 -584h-205l-346 463l-117 -123v-340h-166z" />
<glyph unicode="l" horiz-adv-x="425" d="M137 0v1446h156v-1446h-156z" />
<glyph unicode="m" horiz-adv-x="1579" d="M131 0v965h154l2 -129q21 26 61 63q55 48 108 72t119 24q25 0 52 -4.5t72 -26.5t77 -59q24 -26 60 -88q7 6 18.5 18.5t13.5 14.5q20 20 28 27.5t42.5 35t61.5 41.5q28 14 72 28q41 13 81 13h6q131 0 223 -106q25 -29 39.5 -61t20 -78t6 -66t0.5 -80v-604h-162v565 q0 9 0.5 35t0.5 37.5t-1.5 35t-5 36.5t-10 32t-16 31.5t-23.5 25.5t-33 23q-42 21 -88 21q-73 -2 -141.5 -47.5t-89.5 -112.5q-13 -40 -13 -139v-543h-159v543q0 9 0.5 45.5t0 51.5t-4 46.5t-11 49t-22.5 38.5t-37 35q-41 31 -105 31q-29 0 -59 -9q-53 -13 -102.5 -50 t-67.5 -85q-14 -36 -14 -123v-573h-154z" />
<glyph unicode="n" d="M131 0v965h164v-142q23 40 51 68q37 39 100.5 71.5t151.5 32.5q23 0 50.5 -4.5t69 -16.5t83 -41t71.5 -71q18 -25 30.5 -55.5t18 -51.5t8.5 -61.5t3 -55v-63.5v-575h-162v614v10.5v14.5t-0.5 16t-2 19t-4 20.5t-6 21.5t-9.5 21t-13 22t-17 20.5t-22 19.5q-60 43 -145 43 q-105 0 -180 -72q-41 -41 -58 -88q-18 -45 -18 -133v-549h-164z" />
<glyph unicode="o" horiz-adv-x="1110" d="M82 477q0 208 111 350q131 168 370 168q109 0 193 -37q47 -20 91.5 -54.5t87.5 -90.5t69 -142q25 -83 24 -182v-8q0 -208 -113 -350q-136 -162 -358 -162q-211 0 -334 127q-141 141 -141 381zM260 471q0 -42 8 -98q4 -28 11.5 -56.5t28.5 -70t50.5 -72t81.5 -52.5 q50 -22 111 -22h6q148 0 229 121q27 41 43.5 105.5t19.5 99.5t3 57q1 12 1 28q-1 12 -1 27q-2 34 -14 91.5t-35 99.5q-24 46 -60 74q-72 61 -176 61q-63 0 -114 -19.5t-82.5 -48t-54 -71t-33 -76t-16.5 -77.5t-6.5 -61.5t-0.5 -39.5z" />
<glyph unicode="p" horiz-adv-x="1150" d="M133 -459v1424h160l2 -138q44 51 82 80q65 51 137.5 69.5t122.5 18.5q102 0 203 -55q42 -23 79 -58t73 -89.5t57.5 -135.5t21.5 -178q0 -213 -104 -348q-125 -162 -349 -162q-167 0 -278 94q-21 18 -47 50v-572h-160zM293 465q0 -151 76 -252q43 -53 100 -76 q55 -24 127 -24q94 0 147.5 31t87.5 79q72 100 72 262q0 97 -24 162q-9 23 -20.5 45t-36 52t-54 51t-76.5 35q-41 12 -88 12h-14q-87 -3 -152 -47q-61 -40 -103 -121.5t-42 -208.5z" />
<glyph unicode="q" horiz-adv-x="1150" d="M82 469q0 241 115 377q36 46 96 84q101 65 229 65q165 0 277 -108q28 -28 53 -66v144h166v-1426h-166v576q-32 -39 -55 -56q-109 -90 -277 -90q-172 0 -284 99q-154 133 -154 401zM260 479q0 -218 111 -311q80 -66 190 -66q85 0 152 37q151 77 151 310q0 178 -78 282 q-38 54 -98 84q-49 25 -127 27q-106 0 -176 -49q-125 -91 -125 -314z" />
<glyph unicode="r" horiz-adv-x="641" d="M133 0v965h164v-177q37 69 90 111q98 78 240 78v-176q-36 5 -66.5 5t-54.5 -5q-72 -12 -124 -59t-71 -117q-10 -34 -12 -66.5t-2 -112.5v-446h-164z" />
<glyph unicode="s" horiz-adv-x="980" d="M63 311l187 27q0 -56 10.5 -95.5t42.5 -74.5q67 -74 215 -74q118 0 180 56q45 41 45 106q0 42 -18 72q-16 25 -53.5 43.5t-62.5 24.5t-66 14l-94 18q-156 32 -228 76q-117 70 -117 205q0 87 52 157q34 45 84 74t104 39.5t81 13t54 2.5q136 0 226 -51.5t135 -118.5 q38 -57 51 -147l-176 -21q-3 63 -15 91q-22 47 -85 84.5t-158 37.5q-92 0 -141.5 -44t-49.5 -97q0 -22 15 -51q22 -35 71.5 -56t147.5 -44l94 -23q17 -4 49.5 -13.5t38.5 -11.5q107 -33 170 -93.5t63 -162.5q0 -80 -43 -145q-43 -67 -133.5 -113.5t-230.5 -46.5 q-178 0 -287 70q-38 24 -69 61q-68 82 -89 211z" />
<glyph unicode="t" horiz-adv-x="598" d="M33 829v136h155v305h168v-305h174v-136h-174v-553v-27v-25v-20.5t1 -19t2.5 -15.5t4 -15.5t5.5 -12.5q15 -28 59 -28q40 0 102 22v-135q-96 -16 -155 -16q-124 0 -164 59q-16 24 -19.5 51.5t-3.5 91.5v17v626h-155z" />
<glyph unicode="u" d="M133 322.5v40v36.5v566h162v-549q0 -66 0.5 -89.5t5.5 -53t16 -52.5q18 -37 62 -64.5t115 -27.5q20 0 43 3.5t58 13.5t69.5 34t58.5 60q23 33 34 80t12 74.5t1 86.5v484h160v-965h-160l-2 147q-16 -24 -41 -49q-123 -123 -287 -123q-22 0 -46.5 3.5t-66 14t-80.5 39 t-65 70.5q-10 17 -18 36t-13 34t-8.5 39t-5.5 35.5t-3 40t-1 36z" />
<glyph unicode="v" horiz-adv-x="894" d="M25 965h170l256 -740l254 740h167l-348 -965h-147z" />
<glyph unicode="w" horiz-adv-x="1492" d="M23 965h176l241 -717l238 717h143l228 -717l251 717h173l-355 -965h-143l-232 719l-235 -719h-150z" />
<glyph unicode="x" horiz-adv-x="811" d="M18 0l299 489l-284 476h188l193 -332l194 332h185l-291 -476l291 -489h-185l-205 344l-200 -344h-185z" />
<glyph unicode="y" horiz-adv-x="894" d="M18 -309q65 -17 105 -17q58 0 90 21q26 17 48.5 54t31 59.5t22.5 66.5l41 119l-327 971h174l241 -766l256 766h170l-405 -1141q-40 -113 -62 -152q-42 -82 -94.5 -115.5t-144.5 -33.5q-73 0 -146 20v148z" />
<glyph unicode="z" horiz-adv-x="854" d="M27 0v135l555 688h-502v142h704v-131l-561 -699h574v-135h-770z" />
<glyph unicode="{" horiz-adv-x="575" d="M35 590v123q75 5 115 28q35 22 47 60.5t12 128.5v330v12q0 116 12 170q20 81 80.5 119t169.5 41l78 2v-119h-35q-73 0 -106 -33q-19 -23 -25 -45q-8 -31 -8 -145v-336q0 -126 -34 -182.5t-134 -94.5q36 -11 54.5 -20t41.5 -29q40 -37 56 -85.5t16 -139.5v-338 q0 -112 8 -143q21 -78 133 -78h33v-119h-78q-77 0 -123.5 16.5t-79.5 55.5q-35 41 -47 90q-12 54 -12 170v12v330q0 111 -21 149q-18 31 -53 47.5t-100 22.5z" />
<glyph unicode="|" horiz-adv-x="483" d="M158 -293v1888h164v-1888h-164z" />
<glyph unicode="}" horiz-adv-x="575" d="M25 -184h34q43 0 66.5 7t40.5 25q17 17 24 46q11 40 11 143l-2 336q-1 126 33 182t135 96q-35 9 -54.5 19t-42.5 30q-40 35 -55.5 84.5t-15.5 141.5l2 336q0 102 -11 145q-20 76 -133 76h-32v119h77q78 0 124.5 -16t78.5 -56q36 -42 47 -88q15 -70 15 -172v-10l-2 -332 q0 -107 20 -148q19 -32 53.5 -47.5t100.5 -21.5v-123q-74 -7 -115 -31q-35 -20 -47 -58t-12 -128l2 -332v-10q0 -101 -15 -172q-40 -160 -248 -160h-79v119z" />
<glyph unicode="~" horiz-adv-x="1482" d="M152 588q53 76 108 125q91 82 215 82q53 0 107 -17t166 -67l92 -41q71 -33 101 -42.5t60 -9.5q71 0 136 48q26 19 45.5 38t58.5 64l92 -123q-47 -58 -76.5 -86.5t-70.5 -56.5q-95 -62 -191 -62q-58 0 -135 31q-34 12 -110 47l-72 35q-132 63 -213 63q-38 0 -68 -12 q-23 -9 -44.5 -26t-38 -34.5t-58.5 -66.5l-12 -14z" />
<glyph unicode="&#xa1;" horiz-adv-x="555" d="M158 0v590l49 555h63l49 -578v-567h-161zM158 1262v184h161v-184h-161z" />
<glyph unicode="&#xa2;" horiz-adv-x="1024" d="M57 485q0 60 12 119.5t39 123t80 119t125 91.5q58 29 162 47v197h121v-195q40 -5 70.5 -12.5t79 -29.5t85.5 -54t76 -90.5t64 -136.5l-185 -17q-5 44 -21 79t-35 55.5t-46 37t-45.5 23t-42.5 12.5v-745q40 7 73.5 22.5t65.5 44t52 78t24 115.5l180 -17 q-56 -262 -254 -344q-51 -22 -141 -33v-211h-123v211q-1 0 -12 2t-21 4t-27.5 6.5t-33.5 9.5t-36.5 13t-39.5 17.5t-39.5 23.5t-38.5 29q-88 79 -128 190t-40 215zM231 485q0 -247 152 -340q23 -13 53 -23.5t37 -10.5v747q-58 -19 -67 -24q-81 -42 -128 -129.5t-47 -219.5z " />
<glyph unicode="&#xa3;" horiz-adv-x="1366" d="M74 575v134l268 2q-71 116 -98 192.5t-27 149.5q0 143 94 250q51 59 120 99t137 55.5t109 20.5t77 5q178 0 307 -86q31 -21 60 -48.5t62 -73t54 -111.5t23 -142l-216 -21q7 48 -2 95q-5 28 -15.5 56.5t-33.5 62.5t-55 59.5t-83.5 43t-115.5 17.5q-65 0 -118 -18 q-21 -7 -41.5 -16.5t-47.5 -29.5t-46.5 -45.5t-33.5 -66t-14 -88.5q0 -53 16.5 -106t32 -82t55.5 -90t54 -84h428v-134h-354q3 -10 13.5 -39t13 -38.5t8 -31t7 -40t1.5 -41.5q0 -64 -23 -156q17 -9 27 -16q27 -17 97 -42.5t130 -25.5q95 0 148 62.5t55 157.5l190 -13 q-8 -109 -60 -206t-142 -142q-60 -29 -142 -29q-102 0 -213 39q-33 11 -91.5 39t-76.5 35q-7 -5 -32 -25.5t-41 -29.5q-97 -64 -215 -64q-32 0 -74 11q-46 12 -78.5 34t-48.5 48.5t-22.5 50t-6.5 45.5q0 50 27 90q58 88 196 88q98 0 205 -37q6 28 4 45q-4 59 -34 133 q-22 47 -56 98h-362zM256 143q0 -18 17.5 -33.5t48.5 -15.5q71 0 143 64q-27 11 -74 22q-26 13 -69 13q-40 0 -58 -25q-8 -8 -8 -25z" />
<glyph unicode="&#xa4;" horiz-adv-x="1357" d="M92 223l156 152q-58 81 -82.5 154.5t-24.5 166.5q0 92 24 163t83 155l-152 151l113 113l151 -152q78 57 153.5 82t166.5 25q183 0 317 -107l154 154l115 -115l-154 -153q57 -85 81 -157.5t24 -160.5q0 -89 -25 -163t-82 -156l154 -156l-115 -113l-154 156 q-92 -62 -158.5 -84t-158.5 -22q-94 0 -163 23t-155 83l-155 -151zM317 696q0 -157 105.5 -261.5t263.5 -104.5q150 0 252 104.5t102 257.5q0 158 -102.5 263.5t-257.5 105.5q-154 0 -258.5 -105t-104.5 -260z" />
<glyph unicode="&#xa5;" horiz-adv-x="1280" d="M29 1386h229l379 -587l387 587h227l-350 -505h229v-148h-325l-78 -106h403v-148h-399v-479h-192v479h-398v148h398l-66 104h-332v146h232z" />
<glyph unicode="&#xa6;" horiz-adv-x="516" d="M174 -281v822h168v-822h-168zM174 784v824h168v-824h-168z" />
<glyph unicode="&#xa7;" horiz-adv-x="1280" d="M76 760q0 94 54 179t140 134q-43 43 -64.5 85t-21.5 97q0 101 66.5 179t167.5 114q88 31 178 31h12q168 0 387 -98q14 -6 52 -24.5t59 -26.5l-82 -146q-63 36 -102 56t-95.5 44t-111 35t-111.5 11q-35 0 -72.5 -7.5t-75 -23t-61.5 -45t-24 -68.5q0 -26 11 -48t22.5 -35 t39 -28.5t39.5 -20.5t45 -18q3 -2 5 -2.5t5 -1.5t5 -2q273 -103 352 -141q69 -33 118.5 -65t96.5 -77.5t71.5 -105.5t24.5 -133q0 -99 -52.5 -185t-139.5 -136q102 -92 102 -205q0 -67 -37 -133q-54 -100 -157 -149.5t-226 -49.5q-206 0 -534 166l82 152q98 -70 221 -113 t237 -43q51 0 95.5 12t80 46.5t35.5 86.5v6q0 26 -9 47.5t-20.5 35.5t-34 27.5t-38 20t-44.5 18t-42 17.5q-8 3 -106.5 45.5t-140.5 63.5t-120.5 61.5t-128.5 78.5t-82 77q-71 86 -71 205zM262 780q0 -84 78 -149q33 -29 108.5 -69.5t133.5 -67.5t157 -70.5t111 -48.5 q72 27 125 85.5t53 129.5q0 50 -35 104q-20 28 -52.5 55.5t-65.5 47.5t-80.5 42t-80 35t-81.5 32.5t-70 27.5l-131 53q-65 -23 -117.5 -83t-52.5 -124z" />
<glyph unicode="&#xa8;" horiz-adv-x="555" d="M-14 1108v211h178v-211h-178zM387 1108v211h182v-211h-182z" />
<glyph unicode="&#xa9;" horiz-adv-x="1720" d="M131 723q0 200 97 367.5t265 264.5t369 97q117 0 227.5 -36.5t200 -103t157.5 -154.5t105 -197t37 -224q0 -157 -56 -295t-152.5 -236t-232.5 -155t-290 -57q-198 0 -365.5 97t-264.5 264.5t-97 367.5zM205 721q0 -181 86.5 -332t237 -238.5t331.5 -87.5q175 0 326.5 88 t240.5 237t89 321q0 189 -85.5 343t-236 242t-334.5 88q-133 0 -254.5 -52t-209 -140.5t-139.5 -211t-52 -257.5zM438 707q0 217 125.5 355t323.5 138q146 0 236 -67t139 -215l-138 -39q-43 106 -95 147t-144 41q-135 0 -215 -95.5t-80 -256.5q0 -154 75 -244t203 -90 q103 0 165.5 51.5t96.5 161.5l140 -29q-47 -164 -147 -242.5t-257 -78.5q-192 0 -310 128t-118 335z" />
<glyph unicode="&#xaa;" horiz-adv-x="641" d="M61 1020q0 47 18.5 81t48.5 55t80.5 35t101 20t122.5 10v22q0 33 -4 55.5t-15 44t-35 32.5t-61 11q-116 0 -116 -108v-12l-113 8q1 1 3 14.5t7 33.5t11 34q51 114 206 114q82 0 134.5 -33t72.5 -87q13 -32 13 -82v-224q0 -81 45 -81q17 0 30 10v-94q-27 -11 -55 -13 q-83 -2 -117 76q-38 -42 -83 -63.5t-113 -20.5q-73 0 -127 42.5t-54 119.5zM180 1030q-3 -43 28 -63.5t73 -20.5q26 1 50 8.5t48 24.5t38.5 51t14.5 82v35l-43 -6q-153 -22 -186 -58q-23 -25 -23 -53z" />
<glyph unicode="&#xab;" horiz-adv-x="811" d="M86 512v174l276 240v-187l-159 -139l159 -137v-182zM410 520v170l274 238v-183l-164 -145l164 -135v-176z" />
<glyph unicode="&#xac;" horiz-adv-x="1482" d="M143 535v163h1160v-686h-183v523h-977z" />
<glyph unicode="&#xad;" horiz-adv-x="757" d="M92 537v155h574v-155h-574z" />
<glyph unicode="&#xae;" horiz-adv-x="1720" d="M131 723q0 200 97 367.5t265 264.5t369 97q117 0 227.5 -36.5t200 -103t157.5 -154.5t105 -197t37 -224q0 -157 -56 -295t-152.5 -236t-232.5 -155t-290 -57q-198 0 -365.5 97t-264.5 264.5t-97 367.5zM207 721q0 -181 86.5 -332t236.5 -238.5t330 -87.5q175 0 326.5 88 t240.5 237t89 321q0 189 -85.5 343t-236 242t-334.5 88q-133 0 -254 -52t-208.5 -140.5t-139 -211t-51.5 -257.5zM575 262v922h267q169 0 247 -63t78 -201q0 -106 -47.5 -168t-148.5 -90l209 -400h-158l-195 387h-110v-387h-142zM719 774h117q98 0 143 34.5t45 109.5 t-48 108t-155 33h-102v-285z" />
<glyph unicode="&#xaf;" horiz-adv-x="555" d="M-14 1108v139h583v-139h-583z" />
<glyph unicode="&#xb0;" horiz-adv-x="724" d="M33 1217q0 137 96.5 233t232.5 96q139 0 234.5 -95.5t95.5 -233.5q0 -137 -96.5 -234.5t-233.5 -97.5t-233 97.5t-96 234.5zM201 1221q0 -66 47.5 -114t113.5 -48q68 0 115 47.5t47 114.5t-47 114t-115 47t-114.5 -47t-46.5 -114z" />
<glyph unicode="&#xb1;" horiz-adv-x="1482" d="M190 162h1100v-162h-1097zM193 727v160h458v444h180v-444h461v-160h-461v-448h-180v448h-458z" />
<glyph unicode="&#xb2;" horiz-adv-x="768" d="M90 477v125l21 12q106 64 217 157t166 179q59 90 59 168q0 73 -47 117.5t-119 46.5q-83 3 -125.5 -47.5t-42.5 -130.5q0 -30 17 -107h-134q-12 54 -12 109q0 132 79 211t212 82q130 3 218.5 -73.5t88.5 -209.5q0 -123 -97 -250.5t-321 -273.5h428v-115h-608z" />
<glyph unicode="&#xb3;" horiz-adv-x="768" d="M43 770h137q0 -100 56 -147t155 -45q13 0 24.5 1t35.5 5t43.5 14t39 26t30.5 44t11 65q0 83 -47 114.5t-127 31.5h-88v120h68q11 0 22 0.5t41 7.5t51.5 19.5t39.5 41t18 67.5q0 72 -52.5 109.5t-119.5 37.5q-40 0 -71 -11.5t-48 -27.5t-29.5 -39.5t-16.5 -39.5t-7 -36 q-4 -29 -4 -59l-133 2q0 86 20 141q70 187 287 187q57 0 111 -16t99.5 -47t73 -83.5t27.5 -119.5q0 -142 -147 -187q58 -13 84 -31q92 -57 92 -184q0 -39 -10.5 -76t-35.5 -73.5t-62 -64t-95.5 -43.5t-130.5 -15q-242 5 -315 176q-27 62 -27 135z" />
<glyph unicode="&#xb4;" horiz-adv-x="555" d="M147 1069l84 295h177l-177 -295h-84z" />
<glyph unicode="&#xb5;" horiz-adv-x="1155" d="M176 -442v1405h164v-484q0 -117 9.5 -176.5t35.5 -97.5q26 -41 74 -65.5t102 -24.5q66 0 119 36.5t82 102.5q21 47 28 99.5t7 166.5l2 443h162v-711q0 -82 13.5 -110.5t53.5 -28.5q23 0 57 14v-131q-57 -14 -88 -14q-84 0 -126 38t-54 125q-46 -91 -105 -129.5 t-153 -38.5q-74 0 -126.5 28.5t-96.5 92.5l8 -540h-168z" />
<glyph unicode="&#xb6;" horiz-adv-x="1314" d="M156 1042q0 180 112 289q64 62 142.5 88.5t203.5 26.5h461v-111h-67v-1677h-117v1677h-299v-1677h-117v1004q-55 9 -94 22q-104 38 -164.5 134t-60.5 224z" />
<glyph unicode="&#xb7;" horiz-adv-x="409" d="M100 467v254h209v-254h-209z" />
<glyph unicode="&#xb8;" horiz-adv-x="555" d="M139 -197l150 230l59 -15l-59 -106q10 -6 31.5 -17.5t31.5 -17.5q35 -26 49.5 -59t14.5 -58q0 -43 -27 -84q-34 -50 -94.5 -69t-138.5 -23l2 47q19 -6 47 2q25 6 41 26t16 46q0 27 -12 39q-11 17 -27.5 26.5t-45 18.5t-38.5 14z" />
<glyph unicode="&#xb9;" horiz-adv-x="768" d="M164 1147v92q44 3 74.5 9.5t60.5 23t49 48.5t27 81h102v-924h-137v670h-176z" />
<glyph unicode="&#xba;" horiz-adv-x="681" d="M53 1149q0 53 15 106q15 57 45.5 99t62 62.5t69.5 32.5t59 14.5t40 2.5q134 0 209.5 -91t75.5 -218q0 -131 -76.5 -217t-208.5 -86q-132 -1 -210 82t-81 213zM170 1157q0 -37 10 -82q13 -48 49.5 -88t108.5 -43q76 -2 125 50t49 167q0 54 -15 99t-55.5 79t-101.5 35 q-74 0 -122 -53.5t-48 -163.5z" />
<glyph unicode="&#xbb;" horiz-adv-x="811" d="M127 274v185l164 143l-164 137v174l274 -231v-170zM446 279v184l162 141l-162 135v183l277 -232v-172z" />
<glyph unicode="&#xbc;" horiz-adv-x="1792" d="M164 1147v92q44 3 74.5 9.5t60.5 23t49 48.5t27 81h102v-924h-137v670h-176zM508 -6l651 1403l111 -54l-649 -1402zM1069 223v119l438 580h109v-584h131v-115h-133v-223h-129v223h-416zM1206 338h281l4 391z" />
<glyph unicode="&#xbd;" horiz-adv-x="1792" d="M164 1147v92q44 3 74.5 9.5t60.5 23t49 48.5t27 81h102v-924h-137v670h-176zM459 -6l651 1403l111 -54l-650 -1402zM1114 0v125l23 12q124 67 224 161t148 161q68 99 68 184q0 22 -7 46.5t-23.5 52t-51.5 46t-84 19.5q-84 1 -126 -49t-42 -131q0 -24 2.5 -41.5t8.5 -39.5 t6 -24h-134q-12 54 -12 107q0 133 79 211.5t212 81.5q129 3 217 -73t88 -210q0 -124 -95.5 -250t-320.5 -272h428v-117h-608z" />
<glyph unicode="&#xbe;" horiz-adv-x="1792" d="M43 770h137q0 -100 56 -147t155 -45q13 0 24.5 1t35.5 5t43.5 14t39 26t30.5 44t11 65q0 83 -47 114.5t-127 31.5h-88v120h68q11 0 22 0.5t41 7.5t51.5 19.5t39.5 41t18 67.5q0 72 -52.5 109.5t-119.5 37.5q-40 0 -71 -11.5t-48 -27.5t-29.5 -39.5t-16.5 -39.5t-7 -36 q-4 -29 -4 -59l-133 2q0 86 20 141q70 187 287 187q57 0 111 -16t99.5 -47t73 -83.5t27.5 -119.5q0 -142 -147 -187q58 -13 84 -31q92 -57 92 -184q0 -39 -10.5 -76t-35.5 -73.5t-62 -64t-95.5 -43.5t-130.5 -15q-242 5 -315 176q-27 62 -27 135zM596 -6l651 1403l111 -54 l-649 -1402zM1069 223v119l438 580h109v-584h131v-115h-133v-223h-129v223h-416zM1206 338h281l4 391z" />
<glyph unicode="&#xbf;" horiz-adv-x="1150" d="M76 430q0 111 55.5 207t153.5 145q75 38 180 45v312h160v-484h-66q-10 0 -38 -2.5t-76.5 -12t-77.5 -24.5q-48 -22 -74 -61q-49 -63 -49 -145q0 -75 32 -129q31 -53 100.5 -96.5t176.5 -43.5q89 0 152 35q51 30 87.5 95t36.5 169q0 6 -1 18.5t-1 18.5l181 -2 q0 -211 -109 -338q-133 -149 -350 -149q-126 0 -233.5 54.5t-173.5 157t-66 230.5zM455 1247v199h182v-199h-182z" />
<glyph unicode="&#xc0;" horiz-adv-x="1323" d="M20 0l551 1446h201l526 -1446h-202l-158 442h-551l-162 -442h-205zM446 1833h205l97 -254h-123zM449 604h432l-211 604z" />
<glyph unicode="&#xc1;" horiz-adv-x="1323" d="M20 0l551 1446h201l526 -1446h-202l-158 442h-551l-162 -442h-205zM449 604h432l-211 604zM575 1579l99 254h203l-179 -254h-123z" />
<glyph unicode="&#xc2;" horiz-adv-x="1323" d="M20 0l551 1446h201l526 -1446h-202l-158 442h-551l-162 -442h-205zM385 1579l207 254h133l219 -254h-158l-127 152l-120 -152h-154zM449 604h432l-211 604z" />
<glyph unicode="&#xc3;" horiz-adv-x="1323" d="M20 0l551 1446h201l526 -1446h-202l-158 442h-551l-162 -442h-205zM362 1610q21 127 84 174q38 28 97 28q31 0 61.5 -9.5t67.5 -25t59 -22.5q24 -12 66 -12q21 0 32 8q19 12 35 55h97q-5 -37 -23 -84q-4 -12 -8.5 -23t-17 -31t-27.5 -34t-40 -25t-54 -10q-22 0 -49 7 t-46.5 14t-74.5 29q-60 24 -93 24q-17 0 -22 -2q-12 -4 -25.5 -20t-17.5 -41h-101zM449 604h432l-211 604z" />
<glyph unicode="&#xc4;" horiz-adv-x="1323" d="M20 0l551 1446h201l526 -1446h-202l-158 442h-551l-162 -442h-205zM377 1599v209h178v-209h-178zM449 604h432l-211 604zM778 1599v209h178v-209h-178z" />
<glyph unicode="&#xc5;" horiz-adv-x="1323" d="M20 0l551 1446h201l526 -1446h-202l-158 442h-551l-162 -442h-205zM449 604h432l-211 604zM475 1739q0 80 57.5 136t139.5 56q80 0 137 -56.5t57 -137.5t-58 -138t-138 -57q-82 0 -138.5 57.5t-56.5 139.5zM567 1737q0 -43 31 -73t74 -30q41 0 71.5 31t30.5 74 t-30.5 72.5t-73.5 29.5t-73 -30.5t-30 -73.5z" />
<glyph unicode="&#xc6;" horiz-adv-x="2134" d="M-4 0l989 1446h1067v-170h-809v-473h653v-162h-653v-473h834v-168h-1024v475h-516l-316 -475h-225zM649 641h404v619z" />
<glyph unicode="&#xc7;" horiz-adv-x="1564" d="M100 727q1 223 87.5 393.5t253.5 266.5t393 96q116 0 215.5 -26t170.5 -68.5t126.5 -101t89.5 -119.5t55 -128l-195 -41q-35 102 -79 156q-62 77 -159.5 125.5t-226.5 48.5q-74 0 -143.5 -17.5t-139 -61.5t-121 -110.5t-83.5 -172.5t-31 -240q1 -90 18 -173.5t56 -163 t97 -138t146.5 -94t198.5 -35.5q191 0 320.5 112.5t161.5 313.5l209 -25q-32 -163 -149.5 -307.5t-285.5 -206.5q-76 -29 -223 -41l-33 -57q4 -3 30 -17t44.5 -27t35.5 -42t17 -66q0 -77 -69.5 -126.5t-190.5 -49.5v47q4 -2 15 -2q46 0 70 24t22 54q-3 37 -30.5 56t-92.5 40 l106 162q-73 8 -102.5 11.5t-88 17t-101.5 33.5q-61 27 -116.5 69t-107 104.5t-89 138.5t-59.5 176t-22 212z" />
<glyph unicode="&#xc8;" horiz-adv-x="1236" d="M162 0v1446h995v-170h-811v-447h705v-167h-705v-494h836v-168h-1020zM426 1833h203l96 -254h-121z" />
<glyph unicode="&#xc9;" horiz-adv-x="1236" d="M162 0v1446h995v-170h-811v-447h705v-167h-705v-494h836v-168h-1020zM553 1579l98 254h203l-178 -254h-123z" />
<glyph unicode="&#xca;" horiz-adv-x="1236" d="M162 0v1446h995v-170h-811v-447h705v-167h-705v-494h836v-168h-1020zM375 1579l207 254h133l219 -254h-158l-127 152l-121 -152h-153z" />
<glyph unicode="&#xcb;" horiz-adv-x="1236" d="M162 0v1446h995v-170h-811v-447h705v-167h-705v-494h836v-168h-1020zM360 1599v209h179v-209h-179zM762 1599v209h180v-209h-180z" />
<glyph unicode="&#xcc;" horiz-adv-x="468" d="M20 1833h203l96 -254h-120zM137 0v1446h195v-1446h-195z" />
<glyph unicode="&#xcd;" horiz-adv-x="468" d="M137 0v1446h195v-1446h-195zM150 1579l98 254h201l-177 -254h-122z" />
<glyph unicode="&#xce;" horiz-adv-x="468" d="M-41 1579l207 254h133l219 -254h-158l-127 152l-120 -152h-154zM137 0v1446h195v-1446h-195z" />
<glyph unicode="&#xcf;" horiz-adv-x="468" d="M-55 1599v209h178v-209h-178zM137 0v1446h195v-1446h-195zM346 1599v209h178v-209h-178z" />
<glyph unicode="&#xd0;" horiz-adv-x="1449" d="M27 698v123h133v625h508q61 0 94 -1t84 -8.5t94 -21.5q89 -30 162 -86.5t129.5 -141.5t87 -206.5t29.5 -269.5q0 -346 -182 -535q-112 -117 -287 -158q-76 -16 -220 -16q-25 0 -67 -1t-66 -1h-366v698h-133zM358 168h256q187 0 271 35q125 48 195 179t71 333 q0 453 -313 540q-83 21 -222 21h-258v-455h344v-123h-344v-530z" />
<glyph unicode="&#xd1;" horiz-adv-x="1449" d="M160 0v1446h182l782 -1159l-8 1159h174v-1446h-174l-792 1176l18 -1176h-182zM428 1610q18 126 82 174q38 28 96 28q31 0 62 -9t69 -25.5t58 -22.5q36 -12 67 -12q20 0 31 8q22 12 35 55h96q-7 -50 -20 -84q-8 -20 -14.5 -32t-24.5 -38t-46.5 -40t-64.5 -13 q-29 0 -62.5 10.5t-107.5 39.5q-60 24 -92 24q-13 0 -21 -2q-38 -16 -45 -61h-98z" />
<glyph unicode="&#xd2;" horiz-adv-x="1662" d="M104 725q0 325 181 530q99 112 245.5 170t303.5 58q155 0 286 -51q218 -85 329.5 -271t111.5 -426q0 -297 -152 -504q-35 -47 -80.5 -88t-115.5 -84.5t-170 -69.5t-216 -26q-300 0 -497 184q-226 212 -226 578zM313 723q0 -226 97 -383q45 -68 92 -109q66 -57 139 -84 q89 -32 197 -32q123 0 219 43q56 26 105.5 69.5t94 111.5t70.5 170t25 226q0 248 -113 402q-139 190 -405 190q-84 -1 -154.5 -20t-119.5 -51t-80.5 -62.5t-55.5 -65.5q-57 -81 -84 -189t-27 -216zM618 1833h203l97 -254h-121z" />
<glyph unicode="&#xd3;" horiz-adv-x="1662" d="M104 725q0 325 181 530q99 112 245.5 170t303.5 58q155 0 286 -51q218 -85 329.5 -271t111.5 -426q0 -297 -152 -504q-35 -47 -80.5 -88t-115.5 -84.5t-170 -69.5t-216 -26q-300 0 -497 184q-226 212 -226 578zM313 723q0 -226 97 -383q45 -68 92 -109q66 -57 139 -84 q89 -32 197 -32q123 0 219 43q56 26 105.5 69.5t94 111.5t70.5 170t25 226q0 248 -113 402q-139 190 -405 190q-84 -1 -154.5 -20t-119.5 -51t-80.5 -62.5t-55.5 -65.5q-57 -81 -84 -189t-27 -216zM745 1579l99 254h203l-179 -254h-123z" />
<glyph unicode="&#xd4;" horiz-adv-x="1662" d="M104 725q0 325 181 530q99 112 245.5 170t303.5 58q155 0 286 -51q218 -85 329.5 -271t111.5 -426q0 -297 -152 -504q-35 -47 -80.5 -88t-115.5 -84.5t-170 -69.5t-216 -26q-300 0 -497 184q-226 212 -226 578zM313 723q0 -226 97 -383q45 -68 92 -109q66 -57 139 -84 q89 -32 197 -32q123 0 219 43q56 26 105.5 69.5t94 111.5t70.5 170t25 226q0 248 -113 402q-139 190 -405 190q-84 -1 -154.5 -20t-119.5 -51t-80.5 -62.5t-55.5 -65.5q-57 -81 -84 -189t-27 -216zM557 1579l205 254h133l221 -254h-158l-127 152l-122 -152h-152z" />
<glyph unicode="&#xd5;" horiz-adv-x="1662" d="M104 725q0 325 181 530q99 112 245.5 170t303.5 58q155 0 286 -51q218 -85 329.5 -271t111.5 -426q0 -297 -152 -504q-35 -47 -80.5 -88t-115.5 -84.5t-170 -69.5t-216 -26q-300 0 -497 184q-226 212 -226 578zM313 723q0 -226 97 -383q45 -68 92 -109q66 -57 139 -84 q89 -32 197 -32q123 0 219 43q56 26 105.5 69.5t94 111.5t70.5 170t25 226q0 248 -113 402q-139 190 -405 190q-84 -1 -154.5 -20t-119.5 -51t-80.5 -62.5t-55.5 -65.5q-57 -81 -84 -189t-27 -216zM535 1610q18 127 81 174q38 28 97 28q31 0 62 -9t68.5 -25.5t57.5 -22.5 q36 -12 68 -12q19 0 30 8q22 12 35 55h96q-7 -50 -20 -84q-5 -13 -6 -15t-9.5 -20t-14.5 -25.5t-19.5 -22t-26.5 -22t-32.5 -13t-40.5 -5.5q-30 0 -63.5 10.5t-104.5 39.5q-63 24 -95 24q-12 0 -20 -2q-38 -16 -45 -61h-98z" />
<glyph unicode="&#xd6;" horiz-adv-x="1662" d="M104 725q0 325 181 530q99 112 245.5 170t303.5 58q155 0 286 -51q218 -85 329.5 -271t111.5 -426q0 -297 -152 -504q-35 -47 -80.5 -88t-115.5 -84.5t-170 -69.5t-216 -26q-300 0 -497 184q-226 212 -226 578zM313 723q0 -226 97 -383q45 -68 92 -109q66 -57 139 -84 q89 -32 197 -32q123 0 219 43q56 26 105.5 69.5t94 111.5t70.5 170t25 226q0 248 -113 402q-139 190 -405 190q-84 -1 -154.5 -20t-119.5 -51t-80.5 -62.5t-55.5 -65.5q-57 -81 -84 -189t-27 -216zM551 1599v209h178v-209h-178zM952 1599v209h178v-209h-178z" />
<glyph unicode="&#xd7;" horiz-adv-x="1482" d="M270 940l127 127l334 -328l322 328l114 -113l-321 -327l334 -328l-125 -127l-334 326l-324 -328l-114 113l323 327z" />
<glyph unicode="&#xd8;" horiz-adv-x="1662" d="M96 121l142 135q-26 45 -42 76.5t-41.5 95t-39 138.5t-13.5 157q0 46 6.5 98.5t25 133t64.5 166t113 155.5q193 207 516 207q75 0 168 -17q165 -34 328 -168l141 134l99 -105l-144 -139q144 -212 144 -461q0 -159 -62 -315q-88 -216 -267.5 -332.5t-416.5 -116.5 q-147 0 -257.5 42.5t-229.5 139.5l-133 -127zM315 717q0 -167 66 -322l807 774q-144 160 -367 160q-233 0 -370 -168q-69 -84 -102.5 -203.5t-33.5 -240.5zM459 268q84 -82 169.5 -117.5t202.5 -35.5q204 0 343 129q48 45 83 102.5t52 106t27 103.5t12 84t2 58 q0 192 -78 351z" />
<glyph unicode="&#xd9;" horiz-adv-x="1409" d="M156 551v895h192v-868q0 -127 6 -168q15 -123 95 -199q52 -49 120 -70q51 -14 125 -14q127 0 215 57q35 22 60.5 50t41.5 62t25.5 64.5t14 73t5.5 72.5t1 76v864h194v-924q0 -110 -12 -168q-13 -72 -61.5 -155t-149.5 -148q-140 -88 -336 -88q-135 0 -235 39 q-99 37 -174 114.5t-107 178.5q-14 49 -17 95.5t-3 160.5zM489 1833h203l99 -254h-123z" />
<glyph unicode="&#xda;" horiz-adv-x="1409" d="M156 551v895h192v-868q0 -127 6 -168q15 -123 95 -199q52 -49 120 -70q51 -14 125 -14q127 0 215 57q35 22 60.5 50t41.5 62t25.5 64.5t14 73t5.5 72.5t1 76v864h194v-924q0 -110 -12 -168q-13 -72 -61.5 -155t-149.5 -148q-140 -88 -336 -88q-135 0 -235 39 q-99 37 -174 114.5t-107 178.5q-14 49 -17 95.5t-3 160.5zM618 1579l99 254h203l-179 -254h-123z" />
<glyph unicode="&#xdb;" horiz-adv-x="1409" d="M156 551v895h192v-868q0 -127 6 -168q15 -123 95 -199q52 -49 120 -70q51 -14 125 -14q127 0 215 57q35 22 60.5 50t41.5 62t25.5 64.5t14 73t5.5 72.5t1 76v864h194v-924q0 -110 -12 -168q-13 -72 -61.5 -155t-149.5 -148q-140 -88 -336 -88q-135 0 -235 39 q-99 37 -174 114.5t-107 178.5q-14 49 -17 95.5t-3 160.5zM428 1579l207 254h133l219 -254h-158l-127 152l-120 -152h-154z" />
<glyph unicode="&#xdc;" horiz-adv-x="1409" d="M156 551v895h192v-868q0 -127 6 -168q15 -123 95 -199q52 -49 120 -70q51 -14 125 -14q127 0 215 57q35 22 60.5 50t41.5 62t25.5 64.5t14 73t5.5 72.5t1 76v864h194v-924q0 -110 -12 -168q-13 -72 -61.5 -155t-149.5 -148q-140 -88 -336 -88q-135 0 -235 39 q-99 37 -174 114.5t-107 178.5q-14 49 -17 95.5t-3 160.5zM412 1599v209h178v-209h-178zM815 1599v209h178v-209h-178z" />
<glyph unicode="&#xdd;" horiz-adv-x="1280" d="M29 1446h227l381 -612l385 612h229l-520 -784v-662h-194v662zM553 1579l98 254h203l-178 -254h-123z" />
<glyph unicode="&#xde;" horiz-adv-x="1280" d="M156 0v1446h186v-264h471q119 0 191 -23q68 -23 119 -65.5t78.5 -96t41 -108.5t14.5 -113q1 -60 -13 -119.5t-44.5 -117t-85 -103t-127.5 -67.5q-66 -21 -203 -21h-442v-348h-186zM342 518h403q5 0 30.5 -0.5t33.5 0t32 1.5t35 4.5t32 8t34 13t29.5 19t30.5 26.5t26 35 q39 58 39 151q1 49 -11.5 88.5t-31 63.5t-47.5 42t-52 26t-54.5 12.5t-45.5 5t-33 0.5h-4h-446v-496z" />
<glyph unicode="&#xdf;" horiz-adv-x="1110" d="M131 0v1018q0 60 1 87.5t6.5 76.5t20.5 86.5t40 72.5q99 142 331 142q163 0 263 -72q129 -92 129 -258q0 -137 -88 -221q-39 -39 -97 -62q57 -8 104 -31.5t76 -51t51 -63t32 -60t16 -48.5q14 -59 14 -141q0 -321 -199 -436q-107 -62 -245 -62q-84 0 -193 31v172 q2 -1 15 -5.5t22 -7.5t25 -8t31 -8.5t33 -7t38 -5t39 -1.5q138 0 207 94q61 85 61 228q0 132 -69 213q-55 64 -139 88t-246 24l2 162q203 -21 290 66q56 56 56 135q0 90 -65 138t-158 46q-92 0 -150 -39q-15 -10 -27 -22t-21 -22t-16 -27.5t-11.5 -26.5t-8 -31t-5 -29 t-2.5 -33t-1 -30v-32.5v-30.5v-1008h-162z" />
<glyph unicode="&#xe0;" horiz-adv-x="1024" d="M66 250q0 128 104 209q120 90 391 108l148 11q0 52 -2 79q-2 29 -4.5 50t-15.5 54.5t-34 54.5t-62 37.5t-97 16.5q-160 0 -199 -116q-10 -31 -10 -86l-170 10q0 39 16 94q10 31 26 59t45 59t66.5 53.5t93.5 37t123 14.5q74 0 152 -20q22 -6 45 -15t58 -28.5t65.5 -55 t46.5 -81.5q13 -36 16.5 -78.5t3.5 -128.5v-316q0 -43 2 -63q1 -15 3 -22.5t8 -22t21.5 -22t39.5 -7.5q13 0 49 8v-137q-55 -18 -104 -18q-67 0 -103 24q-15 11 -32 37q-23 31 -33 82q-21 -22 -34.5 -36t-47 -40t-65.5 -41.5t-81 -28t-102 -12.5q-67 0 -133 21 q-89 30 -141.5 97t-52.5 159zM246 254q0 -60 45.5 -101.5t136.5 -41.5q32 0 64 5.5t73 23.5t72 47.5t52.5 83t21.5 124.5q0 9 -1 29t-1 29v18q-7 -1 -55.5 -8.5t-79 -12.5t-75.5 -13.5t-78.5 -17.5t-55.5 -18q-16 -6 -32 -15.5t-38 -26.5t-35.5 -44.5t-13.5 -60.5zM305 1362 h182l84 -295h-96z" />
<glyph unicode="&#xe1;" horiz-adv-x="1024" d="M66 250q0 128 104 209q120 90 391 108l148 11q0 52 -2 79q-2 29 -4.5 50t-15.5 54.5t-34 54.5t-62 37.5t-97 16.5q-160 0 -199 -116q-10 -31 -10 -86l-170 10q0 39 16 94q10 31 26 59t45 59t66.5 53.5t93.5 37t123 14.5q74 0 152 -20q22 -6 45 -15t58 -28.5t65.5 -55 t46.5 -81.5q13 -36 16.5 -78.5t3.5 -128.5v-316q0 -43 2 -63q1 -15 3 -22.5t8 -22t21.5 -22t39.5 -7.5q13 0 49 8v-137q-55 -18 -104 -18q-67 0 -103 24q-15 11 -32 37q-23 31 -33 82q-21 -22 -34.5 -36t-47 -40t-65.5 -41.5t-81 -28t-102 -12.5q-67 0 -133 21 q-89 30 -141.5 97t-52.5 159zM246 254q0 -60 45.5 -101.5t136.5 -41.5q32 0 64 5.5t73 23.5t72 47.5t52.5 83t21.5 124.5q0 9 -1 29t-1 29v18q-7 -1 -55.5 -8.5t-79 -12.5t-75.5 -13.5t-78.5 -17.5t-55.5 -18q-16 -6 -32 -15.5t-38 -26.5t-35.5 -44.5t-13.5 -60.5zM465 1069 l84 295h176l-176 -295h-84z" />
<glyph unicode="&#xe2;" horiz-adv-x="1024" d="M66 250q0 128 104 209q120 90 391 108l148 11q0 52 -2 79q-2 29 -4.5 50t-15.5 54.5t-34 54.5t-62 37.5t-97 16.5q-160 0 -199 -116q-10 -31 -10 -86l-170 10q0 39 16 94q10 31 26 59t45 59t66.5 53.5t93.5 37t123 14.5q74 0 152 -20q22 -6 45 -15t58 -28.5t65.5 -55 t46.5 -81.5q13 -36 16.5 -78.5t3.5 -128.5v-316q0 -43 2 -63q1 -15 3 -22.5t8 -22t21.5 -22t39.5 -7.5q13 0 49 8v-137q-55 -18 -104 -18q-67 0 -103 24q-15 11 -32 37q-23 31 -33 82q-21 -22 -34.5 -36t-47 -40t-65.5 -41.5t-81 -28t-102 -12.5q-67 0 -133 21 q-89 30 -141.5 97t-52.5 159zM246 254q0 -60 45.5 -101.5t136.5 -41.5q32 0 64 5.5t73 23.5t72 47.5t52.5 83t21.5 124.5q0 9 -1 29t-1 29v18q-7 -1 -55.5 -8.5t-79 -12.5t-75.5 -13.5t-78.5 -17.5t-55.5 -18q-16 -6 -32 -15.5t-38 -26.5t-35.5 -44.5t-13.5 -60.5zM248 1071 l192 309h138l213 -309h-154l-125 195l-121 -195h-143z" />
<glyph unicode="&#xe3;" horiz-adv-x="1024" d="M66 250q0 128 104 209q120 90 391 108l148 11q0 52 -2 79q-2 29 -4.5 50t-15.5 54.5t-34 54.5t-62 37.5t-97 16.5q-160 0 -199 -116q-10 -31 -10 -86l-170 10q0 39 16 94q10 31 26 59t45 59t66.5 53.5t93.5 37t123 14.5q74 0 152 -20q22 -6 45 -15t58 -28.5t65.5 -55 t46.5 -81.5q13 -36 16.5 -78.5t3.5 -128.5v-316q0 -43 2 -63q1 -15 3 -22.5t8 -22t21.5 -22t39.5 -7.5q13 0 49 8v-137q-55 -18 -104 -18q-67 0 -103 24q-15 11 -32 37q-23 31 -33 82q-21 -22 -34.5 -36t-47 -40t-65.5 -41.5t-81 -28t-102 -12.5q-67 0 -133 21 q-89 30 -141.5 97t-52.5 159zM213 1104q1 13 4 29.5t15.5 50.5t30 59t51.5 45t77 19q18 0 36 -3t38.5 -9.5t33.5 -11t38 -14.5t34 -14l13 -5q13 -4 31 -8.5t32 -4.5q57 0 66 63h98l-1 -8q-2 -7 -3.5 -16.5t-5.5 -23.5t-9 -28t-12.5 -29.5t-16.5 -29.5t-21.5 -27t-27 -22.5 t-33.5 -14.5t-40 -5q-31 0 -66.5 11t-111.5 40q-56 20 -82 20q-24 0 -40.5 -14.5t-21 -26t-6.5 -22.5h-100zM246 254q0 -60 45.5 -101.5t136.5 -41.5q32 0 64 5.5t73 23.5t72 47.5t52.5 83t21.5 124.5q0 9 -1 29t-1 29v18q-7 -1 -55.5 -8.5t-79 -12.5t-75.5 -13.5 t-78.5 -17.5t-55.5 -18q-16 -6 -32 -15.5t-38 -26.5t-35.5 -44.5t-13.5 -60.5z" />
<glyph unicode="&#xe4;" horiz-adv-x="1024" d="M66 250q0 128 104 209q120 90 391 108l148 11q0 52 -2 79q-2 29 -4.5 50t-15.5 54.5t-34 54.5t-62 37.5t-97 16.5q-160 0 -199 -116q-10 -31 -10 -86l-170 10q0 39 16 94q10 31 26 59t45 59t66.5 53.5t93.5 37t123 14.5q74 0 152 -20q22 -6 45 -15t58 -28.5t65.5 -55 t46.5 -81.5q13 -36 16.5 -78.5t3.5 -128.5v-316q0 -43 2 -63q1 -15 3 -22.5t8 -22t21.5 -22t39.5 -7.5q13 0 49 8v-137q-55 -18 -104 -18q-67 0 -103 24q-15 11 -32 37q-23 31 -33 82q-21 -22 -34.5 -36t-47 -40t-65.5 -41.5t-81 -28t-102 -12.5q-67 0 -133 21 q-89 30 -141.5 97t-52.5 159zM215 1108v211h178v-211h-178zM246 254q0 -60 45.5 -101.5t136.5 -41.5q32 0 64 5.5t73 23.5t72 47.5t52.5 83t21.5 124.5q0 9 -1 29t-1 29v18q-7 -1 -55.5 -8.5t-79 -12.5t-75.5 -13.5t-78.5 -17.5t-55.5 -18q-16 -6 -32 -15.5t-38 -26.5 t-35.5 -44.5t-13.5 -60.5zM616 1108v211h183v-211h-183z" />
<glyph unicode="&#xe5;" horiz-adv-x="1024" d="M66 250q0 128 104 209q120 90 391 108l148 11q0 52 -2 79q-2 29 -4.5 50t-15.5 54.5t-34 54.5t-62 37.5t-97 16.5q-160 0 -199 -116q-10 -31 -10 -86l-170 10q0 39 16 94q10 31 26 59t45 59t66.5 53.5t93.5 37t123 14.5q74 0 152 -20q22 -6 45 -15t58 -28.5t65.5 -55 t46.5 -81.5q13 -36 16.5 -78.5t3.5 -128.5v-316q0 -43 2 -63q1 -15 3 -22.5t8 -22t21.5 -22t39.5 -7.5q13 0 49 8v-137q-55 -18 -104 -18q-67 0 -103 24q-15 11 -32 37q-23 31 -33 82q-21 -22 -34.5 -36t-47 -40t-65.5 -41.5t-81 -28t-102 -12.5q-67 0 -133 21 q-89 30 -141.5 97t-52.5 159zM246 254q0 -60 45.5 -101.5t136.5 -41.5q32 0 64 5.5t73 23.5t72 47.5t52.5 83t21.5 124.5q0 9 -1 29t-1 29v18q-7 -1 -55.5 -8.5t-79 -12.5t-75.5 -13.5t-78.5 -17.5t-55.5 -18q-16 -6 -32 -15.5t-38 -26.5t-35.5 -44.5t-13.5 -60.5zM311 1245 q0 80 57 137.5t136 57.5q81 -1 137.5 -58t56.5 -137q0 -79 -57 -136.5t-137 -57.5q-81 0 -137 57t-56 137zM399 1245q0 -43 30.5 -73.5t74.5 -30.5t74 31.5t30 74.5q0 42 -31 73.5t-73 31.5q-44 0 -74.5 -32t-30.5 -75z" />
<glyph unicode="&#xe6;" horiz-adv-x="1662" d="M68 242q0 89 51.5 160t134.5 108q21 9 44 16.5t42.5 12t51 8t50.5 5.5t62 3t64 1t78 0.5t85 0.5q0 82 -10 121q-21 86 -80.5 139t-144.5 53q-53 0 -99 -20q-38 -19 -71 -61.5t-37 -112.5l-172 12q10 85 41 139q23 41 60 75.5t110 63.5t164 29q162 0 260 -90 q33 -29 65 -82q30 45 66 76q39 37 107 66.5t159 29.5q201 0 326 -157q122 -150 120 -400h-700q0 -150 70 -239q75 -97 206 -97q78 0 137 42.5t87 117.5q9 26 12 45l172 -26q-28 -110 -113 -191q-127 -121 -315 -121q-247 0 -363 203q-158 -203 -391 -203q-62 0 -127 19 q-92 27 -147 93t-55 161zM238 248q0 -54 48 -102t144 -48q127 0 209 86q87 91 92 254h-96q-117 0 -205 -18q-103 -21 -154 -78q-38 -38 -38 -94zM893 557h528q-8 131 -73 207q-25 32 -77 64t-120 32q-47 0 -103 -25t-100 -90q-55 -82 -55 -188z" />
<glyph unicode="&#xe7;" d="M80 496q2 97 27.5 179t68 139.5t94 96.5t111.5 60q73 24 176 24q99 -2 184.5 -31t157.5 -108q50 -52 80 -127q11 -30 14 -57l-180 -19q-15 73 -37 107q-73 117 -217 117q-132 5 -215 -91t-84 -294q-1 -201 84 -298.5t219 -97.5q49 0 89 12t66.5 28.5t48 44.5t32.5 49 t20 52.5t11.5 45.5t5.5 37l176 -17q-14 -83 -46.5 -148.5t-75.5 -105.5t-82.5 -63.5t-80.5 -36.5q-53 -14 -127 -21l-37 -61q3 -2 23.5 -12t35 -20.5t32.5 -27t28 -40t10 -52.5q0 -77 -69.5 -126.5t-190.5 -49.5v47q4 -2 14 -2q46 0 70.5 24t22.5 54q-2 19 -11 34t-24.5 25 t-28.5 15.5t-32.5 12t-26.5 9.5l108 168q-127 13 -184 41q-117 57 -190.5 182t-69.5 302z" />
<glyph unicode="&#xe8;" d="M80 492q0 207 108 337q66 79 160.5 122.5t198.5 43.5q78 0 151 -26q38 -13 75.5 -34t88 -73.5t80.5 -122.5q47 -110 47 -286h-733q-1 -116 41 -194.5t98 -117.5q73 -49 174 -49q98 0 162 60q31 25 53 63q9 15 16.5 32.5t11 29.5t7 25t4.5 15l166 -22q0 -1 -7.5 -20.5 t-13.5 -34t-17.5 -37.5t-24.5 -43q-126 -191 -373 -191q-113 0 -203 39q-50 21 -93.5 56t-85.5 91t-66.5 143t-24.5 194zM260 571h551q-5 60 -14 95q-25 90 -96.5 146t-165.5 56q-83 0 -144.5 -43t-92.5 -108t-38 -146zM338 1362h182l84 -295h-98z" />
<glyph unicode="&#xe9;" d="M80 492q0 207 108 337q66 79 160.5 122.5t198.5 43.5q78 0 151 -26q38 -13 75.5 -34t88 -73.5t80.5 -122.5q47 -110 47 -286h-733q-1 -116 41 -194.5t98 -117.5q73 -49 174 -49q98 0 162 60q31 25 53 63q9 15 16.5 32.5t11 29.5t7 25t4.5 15l166 -22q0 -1 -7.5 -20.5 t-13.5 -34t-17.5 -37.5t-24.5 -43q-126 -191 -373 -191q-113 0 -203 39q-50 21 -93.5 56t-85.5 91t-66.5 143t-24.5 194zM260 571h551q-5 60 -14 95q-25 90 -96.5 146t-165.5 56q-83 0 -144.5 -43t-92.5 -108t-38 -146zM485 1069l86 295h177l-177 -295h-86z" />
<glyph unicode="&#xea;" d="M80 492q0 207 108 337q66 79 160.5 122.5t198.5 43.5q78 0 151 -26q38 -13 75.5 -34t88 -73.5t80.5 -122.5q47 -110 47 -286h-733q-1 -116 41 -194.5t98 -117.5q73 -49 174 -49q98 0 162 60q31 25 53 63q9 15 16.5 32.5t11 29.5t7 25t4.5 15l166 -22q0 -1 -7.5 -20.5 t-13.5 -34t-17.5 -37.5t-24.5 -43q-126 -191 -373 -191q-113 0 -203 39q-50 21 -93.5 56t-85.5 91t-66.5 143t-24.5 194zM260 571h551q-5 60 -14 95q-25 90 -96.5 146t-165.5 56q-83 0 -144.5 -43t-92.5 -108t-38 -146zM268 1071l193 309h139l213 -309h-156l-125 195 l-120 -195h-144z" />
<glyph unicode="&#xeb;" d="M80 492q0 207 108 337q66 79 160.5 122.5t198.5 43.5q78 0 151 -26q38 -13 75.5 -34t88 -73.5t80.5 -122.5q47 -110 47 -286h-733q-1 -116 41 -194.5t98 -117.5q73 -49 174 -49q98 0 162 60q31 25 53 63q9 15 16.5 32.5t11 29.5t7 25t4.5 15l166 -22q0 -1 -7.5 -20.5 t-13.5 -34t-17.5 -37.5t-24.5 -43q-126 -191 -373 -191q-113 0 -203 39q-50 21 -93.5 56t-85.5 91t-66.5 143t-24.5 194zM260 571h551q-5 60 -14 95q-25 90 -96.5 146t-165.5 56q-83 0 -144.5 -43t-92.5 -108t-38 -146zM266 1108v211h178v-211h-178zM668 1108v211h182v-211 h-182z" />
<glyph unicode="&#xec;" horiz-adv-x="425" d="M18 1362h181l86 -295h-99zM137 0v965h158v-965h-158z" />
<glyph unicode="&#xed;" horiz-adv-x="425" d="M137 0v965h158v-965h-158zM156 1069l84 295h176l-176 -295h-84z" />
<glyph unicode="&#xee;" horiz-adv-x="425" d="M-51 1071l192 309h140l211 -309h-154l-125 195l-121 -195h-143zM137 0v965h158v-965h-158z" />
<glyph unicode="&#xef;" horiz-adv-x="425" d="M-76 1108v211h178v-211h-178zM137 0v965h158v-965h-158zM328 1108v211h180v-211h-180z" />
<glyph unicode="&#xf0;" horiz-adv-x="1110" d="M82 481q0 144 47 248q43 96 116 158.5t150.5 86t161.5 21.5q90 -1 150.5 -32t113.5 -84l-3 12q-3 12 -6.5 24.5t-10 33t-13.5 41t-17 45t-20.5 47t-24.5 46t-28 43.5l-364 -118l-37 92l338 112q-18 24 -42 50.5t-41 43t-37.5 36t-25.5 24.5l127 59q19 -17 31 -28.5 t26 -27t22 -25l32 -38t43 -51.5l174 60l39 -96l-152 -50q105 -171 151 -337.5t46 -350.5q0 -129 -24 -211q-13 -48 -33.5 -92t-57.5 -92t-84 -82.5t-117.5 -57t-154.5 -22.5q-90 0 -164.5 22.5t-122.5 58t-84.5 85t-55.5 96.5t-30.5 99.5t-14.5 86t-3 64.5zM260 479 q0 -18 0.5 -34.5t6 -57.5t15.5 -74.5t32 -75t52.5 -70t80 -48t110.5 -19.5q131 0 213 93.5t82 289.5v15q0 99 -24 173t-66 115.5t-93.5 60.5t-113.5 17q-84 -3 -144.5 -39t-91.5 -94.5t-44.5 -119.5t-14.5 -130v-2z" />
<glyph unicode="&#xf1;" d="M131 0v965h164v-142q23 40 51 68q37 39 100.5 71.5t151.5 32.5q23 0 50.5 -4.5t69 -16.5t83 -41t71.5 -71q18 -25 30.5 -55.5t18 -51.5t8.5 -61.5t3 -55v-63.5v-575h-162v614v10.5v14.5t-0.5 16t-2 19t-4 20.5t-6 21.5t-9.5 21t-13 22t-17 20.5t-22 19.5q-60 43 -145 43 q-105 0 -180 -72q-41 -41 -58 -88q-18 -45 -18 -133v-549h-164zM233 1104q15 77 39 118q49 86 142 85q28 0 56 -7.5t70 -24t52 -20.5q36 -18 78 -18q9 0 16 1.5t13 5t10.5 7t8 8.5t6 9t4.5 9.5t3 8.5t2.5 8t1.5 6h96q0 -6 -3 -24.5t-14.5 -51t-28.5 -60.5t-49.5 -48.5 t-73.5 -19.5q-22 0 -50 7t-50.5 15t-76.5 29q-59 20 -84 20q-10 0 -18 -2.5t-14 -5.5t-11.5 -8.5t-8.5 -10t-6 -11.5t-4 -10l-3 -9l-2 -6h-101z" />
<glyph unicode="&#xf2;" horiz-adv-x="1110" d="M82 477q0 208 111 350q131 168 370 168q109 0 193 -37q47 -20 91.5 -54.5t87.5 -90.5t68.5 -142t24.5 -190q0 -208 -113 -350q-136 -162 -358 -162q-211 0 -334 127q-141 141 -141 381zM260 471q0 -42 8 -98q4 -28 11.5 -56.5t28.5 -70t50.5 -72t81.5 -53t117 -21.5 q148 0 229 121q27 41 43.5 105.5t19.5 99.5t3 57q2 21 0.5 55t-14 91.5t-35.5 99.5q-24 46 -60 74q-72 61 -176 61q-63 0 -114 -19.5t-82.5 -48t-54 -71t-33 -76t-16.5 -77.5t-6.5 -61.5t-0.5 -39.5zM358 1362h183l84 -295h-97z" />
<glyph unicode="&#xf3;" horiz-adv-x="1110" d="M82 477q0 208 111 350q131 168 370 168q109 0 193 -37q47 -20 91.5 -54.5t87.5 -90.5t68.5 -142t24.5 -190q0 -208 -113 -350q-136 -162 -358 -162q-211 0 -334 127q-141 141 -141 381zM260 471q0 -42 8 -98q4 -28 11.5 -56.5t28.5 -70t50.5 -72t81.5 -53t117 -21.5 q148 0 229 121q27 41 43.5 105.5t19.5 99.5t3 57q2 21 0.5 55t-14 91.5t-35.5 99.5q-24 46 -60 74q-72 61 -176 61q-63 0 -114 -19.5t-82.5 -48t-54 -71t-33 -76t-16.5 -77.5t-6.5 -61.5t-0.5 -39.5zM498 1069l84 295h176l-176 -295h-84z" />
<glyph unicode="&#xf4;" horiz-adv-x="1110" d="M82 477q0 208 111 350q131 168 370 168q109 0 193 -37q47 -20 91.5 -54.5t87.5 -90.5t68.5 -142t24.5 -190q0 -208 -113 -350q-136 -162 -358 -162q-211 0 -334 127q-141 141 -141 381zM260 471q0 -42 8 -98q4 -28 11.5 -56.5t28.5 -70t50.5 -72t81.5 -53t117 -21.5 q148 0 229 121q27 41 43.5 105.5t19.5 99.5t3 57q2 21 0.5 55t-14 91.5t-35.5 99.5q-24 46 -60 74q-72 61 -176 61q-63 0 -114 -19.5t-82.5 -48t-54 -71t-33 -76t-16.5 -77.5t-6.5 -61.5t-0.5 -39.5zM291 1071l192 309h138l213 -309h-154l-125 195l-121 -195h-143z" />
<glyph unicode="&#xf5;" horiz-adv-x="1110" d="M82 477q0 208 111 350q131 168 370 168q109 0 193 -37q47 -20 91.5 -54.5t87.5 -90.5t68.5 -142t24.5 -190q0 -208 -113 -350q-136 -162 -358 -162q-211 0 -334 127q-141 141 -141 381zM256 1104q1 13 4 29.5t15.5 50.5t30 59t51.5 45t77 19q28 0 56 -7.5t70 -24 t52 -20.5q3 -2 14.5 -5.5t30.5 -8t33 -4.5q57 0 66 63h98l-2 -8q-1 -7 -2.5 -16.5t-5.5 -23.5t-9 -28t-12.5 -29.5t-16.5 -29.5t-21.5 -27t-27 -22.5t-33.5 -14.5t-40 -5q-22 0 -51 7t-50 15t-77 29q-59 20 -84 20q-9 0 -16.5 -1.5t-13 -5t-10.5 -7t-9 -9t-6.5 -9.5t-5 -9.5 t-3.5 -8.5t-2 -8l-2 -5h-98zM260 471q0 -42 8 -98q4 -28 11.5 -56.5t28.5 -70t50.5 -72t81.5 -53t117 -21.5q148 0 229 121q27 41 43.5 105.5t19.5 99.5t3 57q2 21 0.5 55t-14 91.5t-35.5 99.5q-24 46 -60 74q-72 61 -176 61q-63 0 -114 -19.5t-82.5 -48t-54 -71t-33 -76 t-16.5 -77.5t-6.5 -61.5t-0.5 -39.5z" />
<glyph unicode="&#xf6;" horiz-adv-x="1110" d="M82 477q0 203 108 348q130 170 373 170q109 0 193 -37q47 -20 91.5 -54.5t87.5 -90.5t68.5 -142t24.5 -190q0 -38 -5.5 -79t-23 -107.5t-62 -131.5t-110.5 -112q-110 -82 -270 -82q-203 0 -324 117q-151 146 -151 391zM260 471q4 -150 57 -240q77 -133 236 -131 q151 0 233 121q27 41 43.5 106t19.5 99.5t3 56.5q3 37 -6 109t-39 131q-28 50 -64 80q-72 61 -178 61q-62 0 -112.5 -19.5t-81.5 -48t-54 -70.5t-33.5 -76.5t-16.5 -77.5t-6.5 -61.5t-0.5 -39.5zM272 1108v211h179v-211h-179zM676 1108v211h180v-211h-180z" />
<glyph unicode="&#xf7;" horiz-adv-x="1482" d="M162 532v166h1159v-166h-1159zM651 168v225h183v-225h-183zM651 838v225h183v-225h-183z" />
<glyph unicode="&#xf8;" horiz-adv-x="1110" d="M78 92l88 86q-82 132 -82 299q0 122 41 223q56 136 172.5 215.5t261.5 79.5q174 0 315 -125l91 88l71 -73l-94 -94q26 -35 37 -64q51 -110 51 -248q0 -104 -31 -194q-13 -36 -31 -71t-55.5 -81.5t-84 -81t-118.5 -58.5t-157 -24q-197 0 -322 131l-81 -82zM256 496 q0 -105 35 -193l473 459q-17 19 -30 30.5t-41 31t-64 30t-78 10.5q-81 0 -145 -43q-62 -39 -106 -119.5t-44 -205.5zM346 211q20 -28 29 -37q82 -76 190 -74q82 0 144 41q62 39 107.5 121.5t45.5 208.5q0 121 -41 201z" />
<glyph unicode="&#xf9;" d="M133 322.5v40v36.5v566h162v-549q0 -66 0.5 -89.5t5.5 -53t16 -52.5q18 -37 62 -64.5t115 -27.5q20 0 43 3.5t58 13.5t69.5 34t58.5 60q23 33 34 80t12 74.5t1 86.5v484h160v-965h-160l-2 147q-16 -24 -41 -49q-123 -123 -287 -123q-22 0 -46.5 3.5t-66 14t-80.5 39 t-65 70.5q-10 17 -18 36t-13 34t-8.5 39t-5.5 35.5t-3 40t-1 36zM338 1362h182l84 -295h-98z" />
<glyph unicode="&#xfa;" d="M133 322.5v40v36.5v566h162v-549q0 -66 0.5 -89.5t5.5 -53t16 -52.5q18 -37 62 -64.5t115 -27.5q20 0 43 3.5t58 13.5t69.5 34t58.5 60q23 33 34 80t12 74.5t1 86.5v484h160v-965h-160l-2 147q-16 -24 -41 -49q-123 -123 -287 -123q-22 0 -46.5 3.5t-66 14t-80.5 39 t-65 70.5q-10 17 -18 36t-13 34t-8.5 39t-5.5 35.5t-3 40t-1 36zM475 1069l86 295h176l-176 -295h-86z" />
<glyph unicode="&#xfb;" d="M133 322.5v40v36.5v566h162v-549q0 -66 0.5 -89.5t5.5 -53t16 -52.5q18 -37 62 -64.5t115 -27.5q20 0 43 3.5t58 13.5t69.5 34t58.5 60q23 33 34 80t12 74.5t1 86.5v484h160v-965h-160l-2 147q-16 -24 -41 -49q-123 -123 -287 -123q-22 0 -46.5 3.5t-66 14t-80.5 39 t-65 70.5q-10 17 -18 36t-13 34t-8.5 39t-5.5 35.5t-3 40t-1 36zM268 1071l193 309h139l213 -309h-156l-125 195l-120 -195h-144z" />
<glyph unicode="&#xfc;" d="M133 322.5v40v36.5v566h162v-549q0 -66 0.5 -89.5t5.5 -53t16 -52.5q18 -37 62 -64.5t115 -27.5q20 0 43 3.5t58 13.5t69.5 34t58.5 60q23 33 34 80t12 74.5t1 86.5v484h160v-965h-160l-2 147q-16 -24 -41 -49q-123 -123 -287 -123q-22 0 -46.5 3.5t-66 14t-80.5 39 t-65 70.5q-10 17 -18 36t-13 34t-8.5 39t-5.5 35.5t-3 40t-1 36zM238 1108v211h178v-211h-178zM639 1108v211h182v-211h-182z" />
<glyph unicode="&#xfd;" horiz-adv-x="894" d="M18 -309q51 -17 101 -17q41 -1 71 10t51 35t34 51t28 70q4 13 53 154l-327 971h174l241 -766l256 766h170l-405 -1141q-63 -179 -123 -240t-174 -61q-75 0 -135 16l-15 4v148zM401 1069l84 295h177l-177 -295h-84z" />
<glyph unicode="&#xfe;" horiz-adv-x="1150" d="M133 -459v1905h160v-621q128 158 332 170q79 3 145 -22t109 -58q195 -143 192 -438q-1 -103 -29.5 -193.5t-83.5 -162t-144 -112.5t-202 -40q-206 3 -319 144v-572h-160zM293 461q1 -71 19.5 -132.5t55 -111t98 -77.5t140.5 -27q90 2 156 41q63 40 102 124t39 199 q1 56 -9.5 108.5t-34.5 100.5t-59.5 83.5t-89 55t-118.5 17.5q-89 -3 -156 -49q-66 -43 -104.5 -127.5t-38.5 -204.5z" />
<glyph unicode="&#xff;" horiz-adv-x="894" d="M18 -309q65 -17 105 -17q58 0 90 21q26 17 48.5 54t31 59.5t22.5 66.5l41 119l-327 971h174l241 -766l256 766h170l-405 -1141q-40 -113 -62 -152q-42 -82 -94.5 -115.5t-144.5 -33.5q-73 0 -146 20v148zM160 1108v211h178v-211h-178zM561 1108v211h182v-211h-182z" />
<glyph unicode="&#x152;" horiz-adv-x="2347" d="M102 729q0 310 177 520q195 234 532 234q287 0 455 -189v152h1003v-172h-819v-449h661v-168h-661v-489h842v-168h-1026v168q-189 -205 -475 -205q-279 0 -461 180q-40 39 -75 87t-72 119.5t-59 170t-22 209.5zM307 721q0 -237 111 -397q43 -63 97 -106t107.5 -62 t93.5 -26t79 -7q35 0 73.5 6.5t91.5 24t106.5 58t94.5 99.5q61 89 82 188t23 230q0 127 -19.5 226t-77.5 186q-41 62 -94 103.5t-107 59t-92 23.5t-75 6q-213 0 -348 -155q-146 -172 -146 -457z" />
<glyph unicode="&#x153;" horiz-adv-x="1792" d="M86 481q0 189 82 312q21 33 50 63t76 64t114.5 54.5t146.5 20.5q213 0 350 -178q127 178 352 178q223 0 347 -166q38 -50 63 -113t34.5 -123t12 -92.5t2.5 -62.5h-727q0 -130 70 -223q89 -117 229 -115q103 0 172 72q37 42 53 76q6 12 11.5 25t9 24.5t4.5 13.5l166 -22 q-40 -119 -131 -205q-120 -115 -297 -115q-30 0 -63 4.5t-82 18t-100 46t-91 79.5q-6 6 -20 25t-15 20q-126 -193 -356 -193q-123 0 -230 58q-42 23 -79.5 57.5t-74.5 87.5t-58.5 133t-20.5 176zM260 477q0 -21 0.5 -38t7.5 -61.5t20 -80.5t40.5 -77.5t66.5 -67.5 q66 -46 148 -46q68 0 127 33q44 24 76 66t46.5 80t22.5 86t9 67t1 39q0 119 -34 200.5t-84 123.5q-66 57 -164 57q-56 0 -117 -27q-70 -37 -118 -125.5t-48 -228.5zM989 561l547 2q-7 62 -27 115q-22 56 -54 95t-67.5 57.5t-65.5 26t-60 7.5q-59 0 -107 -24 q-75 -36 -116.5 -112t-49.5 -167z" />
<glyph unicode="&#x178;" horiz-adv-x="1280" d="M29 1446h227l381 -612l385 612h229l-520 -784v-662h-194v662zM350 1599v209h178v-209h-178zM752 1599v209h178v-209h-178z" />
<glyph unicode="&#x2c6;" horiz-adv-x="555" d="M6 1071l193 309h137l213 -309h-154l-125 195l-120 -195h-144z" />
<glyph unicode="&#x2dc;" horiz-adv-x="555" d="M-20 1104q0 14 6.5 41.5t23 67t55 67.5t91.5 27q30 0 58.5 -7.5t68 -23.5t55.5 -21q0 -1 11.5 -5.5t30 -8.5t32.5 -4q36 0 50.5 22t14.5 41h101h-3q0 -6 -3 -24.5t-14 -51t-28 -60.5t-49 -48.5t-73 -19.5q-32 0 -67.5 11t-109.5 40q-59 20 -84 20q-34 0 -50.5 -23 t-16.5 -40h-100z" />
<glyph unicode="&#x2000;" horiz-adv-x="965" />
<glyph unicode="&#x2001;" horiz-adv-x="1931" />
<glyph unicode="&#x2002;" horiz-adv-x="965" />
<glyph unicode="&#x2003;" horiz-adv-x="1931" />
<glyph unicode="&#x2004;" horiz-adv-x="643" />
<glyph unicode="&#x2005;" horiz-adv-x="482" />
<glyph unicode="&#x2006;" horiz-adv-x="321" />
<glyph unicode="&#x2007;" horiz-adv-x="321" />
<glyph unicode="&#x2008;" horiz-adv-x="241" />
<glyph unicode="&#x2009;" horiz-adv-x="386" />
<glyph unicode="&#x200a;" horiz-adv-x="107" />
<glyph unicode="&#x2010;" horiz-adv-x="757" d="M92 537v155h574v-155h-574z" />
<glyph unicode="&#x2011;" horiz-adv-x="757" d="M92 537v155h574v-155h-574z" />
<glyph unicode="&#x2012;" horiz-adv-x="757" d="M92 537v155h574v-155h-574z" />
<glyph unicode="&#x2013;" horiz-adv-x="1228" d="M92 537v155h1045v-155h-1045z" />
<glyph unicode="&#x2014;" horiz-adv-x="1832" d="M92 537v155h1649v-155h-1649z" />
<glyph unicode="&#x2018;" horiz-adv-x="468" d="M129 901v105q0 131 18 216.5t68 223.5h96q-52 -154 -67 -322h88v-223h-203z" />
<glyph unicode="&#x2019;" horiz-adv-x="468" d="M129 1221v225h203v-107q0 -243 -84 -438h-96q67 191 67 320h-90z" />
<glyph unicode="&#x201a;" horiz-adv-x="468" d="M129 0v223h203v-123q0 -230 -84 -419h-96q67 191 67 319h-90z" />
<glyph unicode="&#x201c;" horiz-adv-x="768" d="M129 901v117q0 231 86 428h96q-67 -184 -67 -322h88v-223h-203zM434 901v117q0 231 86 428h94q-27 -63 -45 -155.5t-20 -166.5h88v-223h-203z" />
<glyph unicode="&#x201d;" horiz-adv-x="768" d="M129 1221v225h203v-125q0 -231 -84 -420h-96q67 191 67 320h-90zM434 1221v225h203v-137q0 -177 -62 -348l-24 -60h-94q30 88 43 153.5t22 166.5h-88z" />
<glyph unicode="&#x201e;" horiz-adv-x="768" d="M129 0v223h203v-123q0 -230 -84 -419h-96q67 191 67 319h-90zM434 0v223h203v-137q0 -170 -62 -346q-4 -10 -12 -29.5t-12 -29.5h-94q52 156 65 319h-88z" />
<glyph unicode="&#x2022;" horiz-adv-x="681" d="M109 494v464h466v-464h-466z" />
<glyph unicode="&#x2026;" horiz-adv-x="2048" d="M244 0v190h192v-190h-192zM926 0v190h194v-190h-194zM1610 0v190h194v-190h-194z" />
<glyph unicode="&#x202f;" horiz-adv-x="386" />
<glyph unicode="&#x2039;" horiz-adv-x="512" d="M98 520v170l275 238v-183l-164 -145l164 -135v-176z" />
<glyph unicode="&#x203a;" horiz-adv-x="512" d="M139 274v185l164 143l-164 137v174l275 -231v-170z" />
<glyph unicode="&#x205f;" horiz-adv-x="482" />
<glyph unicode="&#x20ac;" horiz-adv-x="1433" d="M47 547l47 127h103q0 67 4 100h-154l47 127h121q53 280 229.5 431t460.5 151q154 0 269 -32.5t215 -121.5l-66 -186q-77 98 -173 142t-224 44q-208 0 -334 -110.5t-168 -317.5h817l-45 -127h-786v-41q0 -10 1 -29.5t1 -29.5h749l-45 -127h-690q37 -202 167 -312t335 -110 q135 0 256 53t202 154v-217q-190 -152 -483 -152q-284 0 -466 152t-228 432h-162z" />
<glyph unicode="&#x2122;" horiz-adv-x="1421" d="M47 1346v100h512v-100h-194v-580h-121v580h-197zM629 766v680h159l168 -543l162 543h154v-680h-111l4 534l-159 -534h-111l-154 526l2 -526h-114z" />
<glyph unicode="&#x25fc;" horiz-adv-x="962" d="M0 0v963h963v-963h-963z" />
</font>
</defs>
</svg>
